  0
SECTION
  2
HEADER
  9
$ACADVER
  1
AC1015
  9
$ACADMAINTVER
 70
     6
  9
$DWGCODEPAGE
  3
ANSI_1252
  9
$INSBASE
 10
0.0
 20
0.0
 30
0.0
  9
$EXTMIN
 10
0.0
 20
0.0
 30
0.0
  9
$EXTMAX
 10
296.9999999999999
 20
210.0
 30
0.0
  9
$LIMMIN
 10
0.0
 20
0.0
  9
$LIMMAX
 10
12.0
 20
9.0
  9
$ORTHOMODE
 70
     0
  9
$REGENMODE
 70
     1
  9
$FILLMODE
 70
     1
  9
$QTEXTMODE
 70
     0
  9
$MIRRTEXT
 70
     1
  9
$LTSCALE
 40
1.0
  9
$ATTMODE
 70
     1
  9
$TEXTSIZE
 40
0.2
  9
$TRACEWID
 40
0.05
  9
$TEXTSTYLE
  7
Standard
  9
$CLAYER
  8
0
  9
$CELTYPE
  6
ByLayer
  9
$CECOLOR
 62
   256
  9
$CELTSCALE
 40
1.0
  9
$DISPSILH
 70
     0
  9
$DIMSCALE
 40
1.0
  9
$DIMASZ
 40
0.18
  9
$DIMEXO
 40
0.0625
  9
$DIMDLI
 40
0.38
  9
$DIMRND
 40
0.0
  9
$DIMDLE
 40
0.0
  9
$DIMEXE
 40
0.18
  9
$DIMTP
 40
0.0
  9
$DIMTM
 40
0.0
  9
$DIMTXT
 40
0.18
  9
$DIMCEN
 40
0.09
  9
$DIMTSZ
 40
0.0
  9
$DIMTOL
 70
     0
  9
$DIMLIM
 70
     0
  9
$DIMTIH
 70
     1
  9
$DIMTOH
 70
     1
  9
$DIMSE1
 70
     0
  9
$DIMSE2
 70
     0
  9
$DIMTAD
 70
     0
  9
$DIMZIN
 70
     0
  9
$DIMBLK
  1

  9
$DIMASO
 70
     1
  9
$DIMSHO
 70
     1
  9
$DIMPOST
  1

  9
$DIMAPOST
  1

  9
$DIMALT
 70
     0
  9
$DIMALTD
 70
     2
  9
$DIMALTF
 40
25.4
  9
$DIMLFAC
 40
1.0
  9
$DIMTOFL
 70
     0
  9
$DIMTVP
 40
0.0
  9
$DIMTIX
 70
     0
  9
$DIMSOXD
 70
     0
  9
$DIMSAH
 70
     0
  9
$DIMBLK1
  1

  9
$DIMBLK2
  1

  9
$DIMSTYLE
  2
Standard
  9
$DIMCLRD
 70
     0
  9
$DIMCLRE
 70
     0
  9
$DIMCLRT
 70
     0
  9
$DIMTFAC
 40
1.0
  9
$DIMGAP
 40
0.09
  9
$DIMJUST
 70
     0
  9
$DIMSD1
 70
     0
  9
$DIMSD2
 70
     0
  9
$DIMTOLJ
 70
     1
  9
$DIMTZIN
 70
     0
  9
$DIMALTZ
 70
     0
  9
$DIMALTTZ
 70
     0
  9
$DIMUPT
 70
     0
  9
$DIMDEC
 70
     4
  9
$DIMTDEC
 70
     4
  9
$DIMALTU
 70
     2
  9
$DIMALTTD
 70
     2
  9
$DIMTXSTY
  7
Standard
  9
$DIMAUNIT
 70
     0
  9
$DIMADEC
 70
     0
  9
$DIMALTRND
 40
0.0
  9
$DIMAZIN
 70
     0
  9
$DIMDSEP
 70
    46
  9
$DIMATFIT
 70
     3
  9
$DIMFRAC
 70
     0
  9
$DIMLDRBLK
  1

  9
$DIMLUNIT
 70
     2
  9
$DIMLWD
 70
    -2
  9
$DIMLWE
 70
    -2
  9
$DIMTMOVE
 70
     0
  9
$LUNITS
 70
     2
  9
$LUPREC
 70
     4
  9
$SKETCHINC
 40
0.1
  9
$FILLETRAD
 40
0.5
  9
$AUNITS
 70
     0
  9
$AUPREC
 70
     0
  9
$MENU
  1
.
  9
$ELEVATION
 40
0.0
  9
$PELEVATION
 40
0.0
  9
$THICKNESS
 40
0.0
  9
$LIMCHECK
 70
     0
  9
$CHAMFERA
 40
0.5
  9
$CHAMFERB
 40
0.5
  9
$CHAMFERC
 40
1.0
  9
$CHAMFERD
 40
0.0
  9
$SKPOLY
 70
     0
  9
$TDCREATE
 40
2456997.616600648
  9
$TDUCREATE
 40
2456997.574933982
  9
$TDUPDATE
 40
2456997.616601007
  9
$TDUUPDATE
 40
2456997.57493434
  9
$TDINDWG
 40
0.0000000116
  9
$TDUSRTIMER
 40
0.0000000116
  9
$USRTIMER
 70
     1
  9
$ANGBASE
 50
0.0
  9
$ANGDIR
 70
     0
  9
$PDMODE
 70
     0
  9
$PDSIZE
 40
0.0
  9
$PLINEWID
 40
0.0
  9
$SPLFRAME
 70
     0
  9
$SPLINETYPE
 70
     6
  9
$SPLINESEGS
 70
     8
  9
$HANDSEED
  5
5B7
  9
$SURFTAB1
 70
     6
  9
$SURFTAB2
 70
     6
  9
$SURFTYPE
 70
     6
  9
$SURFU
 70
     6
  9
$SURFV
 70
     6
  9
$UCSBASE
  2

  9
$UCSNAME
  2

  9
$UCSORG
 10
0.0
 20
0.0
 30
0.0
  9
$UCSXDIR
 10
1.0
 20
0.0
 30
0.0
  9
$UCSYDIR
 10
0.0
 20
1.0
 30
0.0
  9
$UCSORTHOREF
  2

  9
$UCSORTHOVIEW
 70
     0
  9
$UCSORGTOP
 10
0.0
 20
0.0
 30
0.0
  9
$UCSORGBOTTOM
 10
0.0
 20
0.0
 30
0.0
  9
$UCSORGLEFT
 10
0.0
 20
0.0
 30
0.0
  9
$UCSORGRIGHT
 10
0.0
 20
0.0
 30
0.0
  9
$UCSORGFRONT
 10
0.0
 20
0.0
 30
0.0
  9
$UCSORGBACK
 10
0.0
 20
0.0
 30
0.0
  9
$PUCSBASE
  2

  9
$PUCSNAME
  2

  9
$PUCSORG
 10
0.0
 20
0.0
 30
0.0
  9
$PUCSXDIR
 10
1.0
 20
0.0
 30
0.0
  9
$PUCSYDIR
 10
0.0
 20
1.0
 30
0.0
  9
$PUCSORTHOREF
  2

  9
$PUCSORTHOVIEW
 70
     0
  9
$PUCSORGTOP
 10
0.0
 20
0.0
 30
0.0
  9
$PUCSORGBOTTOM
 10
0.0
 20
0.0
 30
0.0
  9
$PUCSORGLEFT
 10
0.0
 20
0.0
 30
0.0
  9
$PUCSORGRIGHT
 10
0.0
 20
0.0
 30
0.0
  9
$PUCSORGFRONT
 10
0.0
 20
0.0
 30
0.0
  9
$PUCSORGBACK
 10
0.0
 20
0.0
 30
0.0
  9
$USERI1
 70
     0
  9
$USERI2
 70
     0
  9
$USERI3
 70
     0
  9
$USERI4
 70
     0
  9
$USERI5
 70
     0
  9
$USERR1
 40
18.1
  9
$USERR2
 40
0.0
  9
$USERR3
 40
0.0
  9
$USERR4
 40
0.0
  9
$USERR5
 40
0.0
  9
$WORLDVIEW
 70
     1
  9
$SHADEDGE
 70
     3
  9
$SHADEDIF
 70
    70
  9
$TILEMODE
 70
     1
  9
$MAXACTVP
 70
    64
  9
$PINSBASE
 10
0.0
 20
0.0
 30
0.0
  9
$PLIMCHECK
 70
     0
  9
$PEXTMIN
 10
1.00000000000000E+20
 20
1.00000000000000E+20
 30
1.00000000000000E+20
  9
$PEXTMAX
 10
-1.00000000000000E+20
 20
-1.00000000000000E+20
 30
-1.00000000000000E+20
  9
$PLIMMIN
 10
0.0
 20
0.0
  9
$PLIMMAX
 10
12.0
 20
9.0
  9
$UNITMODE
 70
     0
  9
$VISRETAIN
 70
     1
  9
$PLINEGEN
 70
     0
  9
$PSLTSCALE
 70
     1
  9
$TREEDEPTH
 70
  3020
  9
$CMLSTYLE
  2
Standard
  9
$CMLJUST
 70
     0
  9
$CMLSCALE
 40
1.0
  9
$PROXYGRAPHICS
 70
     1
  9
$MEASUREMENT
 70
     1
  9
$CELWEIGHT
370
    -1
  9
$ENDCAPS
280
     0
  9
$JOINSTYLE
280
     0
  9
$LWDISPLAY
290
     0
  9
$INSUNITS
 70
     4
  9
$HYPERLINKBASE
  1

  9
$STYLESHEET
  1

  9
$XEDIT
290
     1
  9
$CEPSNTYPE
380
     0
  9
$PSTYLEMODE
290
     1
  9
$FINGERPRINTGUID
  2
{BAE2F265-6704-40D6-BC1B-40563250CEEF}
  9
$VERSIONGUID
  2
{FAEB1C32-E019-11D5-929B-00C0DF256EC4}
  9
$EXTNAMES
290
     1
  9
$PSVPSCALE
 40
0.0
  9
$OLESTARTUP
290
     0
  0
ENDSEC
  0
SECTION
  2
CLASSES
  0
CLASS
  1
ACDBDICTIONARYWDFLT
  2
AcDbDictionaryWithDefault
  3
ObjectDBX Classes
 90
        0
280
     0
281
     0
  0
CLASS
  1
VISUALSTYLE
  2
AcDbVisualStyle
  3
ObjectDBX Classes
 90
     4095
280
     0
281
     0
  0
CLASS
  1
MATERIAL
  2
AcDbMaterial
  3
ObjectDBX Classes
 90
     1153
280
     0
281
     0
  0
CLASS
  1
DICTIONARYVAR
  2
AcDbDictionaryVar
  3
ObjectDBX Classes
 90
        0
280
     0
281
     0
  0
CLASS
  1
ACDBPLACEHOLDER
  2
AcDbPlaceHolder
  3
ObjectDBX Classes
 90
        0
280
     0
281
     0
  0
CLASS
  1
LAYOUT
  2
AcDbLayout
  3
ObjectDBX Classes
 90
        0
280
     0
281
     0
  0
ENDSEC
  0
SECTION
  2
TABLES
  0
TABLE
  2
VPORT
  5
8
330
0
100
AcDbSymbolTable
 70
     1
  0
VPORT
  5
29
330
8
100
AcDbSymbolTableRecord
100
AcDbViewportTableRecord
  2
*Active
 70
     0
 10
0.0
 20
0.0
 11
1.0
 21
1.0
 12
148.4999999999999
 22
105.0
 13
0.0
 23
0.0
 14
0.5
 24
0.5
 15
0.5
 25
0.5
 16
0.0
 26
0.0
 36
1.0
 17
0.0
 27
0.0
 37
0.0
 40
231.0
 41
1.60267857142857
 42
50.0
 43
0.0
 44
0.0
 50
0.0
 51
0.0
 71
     0
 72
   100
 73
     1
 74
     3
 75
     0
 76
     0
 77
     0
 78
     0
281
     0
 65
     1
110
0.0
120
0.0
130
0.0
111
1.0
121
0.0
131
0.0
112
0.0
122
1.0
132
0.0
 79
     0
146
0.0
  0
ENDTAB
  0
TABLE
  2
LTYPE
  5
5
330
0
100
AcDbSymbolTable
 70
     9
  0
LTYPE
  5
14
330
5
100
AcDbSymbolTableRecord
100
AcDbLinetypeTableRecord
  2
ByBlock
 70
     0
  3

 72
    65
 73
     0
 40
0.0
  0
LTYPE
  5
15
330
5
100
AcDbSymbolTableRecord
100
AcDbLinetypeTableRecord
  2
ByLayer
 70
     0
  3

 72
    65
 73
     0
 40
0.0
  0
LTYPE
  5
16
330
5
100
AcDbSymbolTableRecord
100
AcDbLinetypeTableRecord
  2
Continuous
 70
     0
  3
Solid line
 72
    65
 73
     0
 40
0.0
  0
LTYPE
  5
3F
330
5
100
AcDbSymbolTableRecord
100
AcDbLinetypeTableRecord
  2
DASHED
 70
     0
  3
Dashed
 72
    65
 73
     2
 40
15.0
 49
7.0
 74
     0
 49
-8.0
 74
     0
  0
LTYPE
  5
40
330
5
100
AcDbSymbolTableRecord
100
AcDbLinetypeTableRecord
  2
DOTTED
 70
     0
  3
Dotted
 72
    65
 73
     2
 40
1.0
 49
0.0
 74
     0
 49
-1.0
 74
     0
  0
LTYPE
  5
41
330
5
100
AcDbSymbolTableRecord
100
AcDbLinetypeTableRecord
  2
DOT_CENTER
 70
     0
  3
Dot_Center
 72
    65
 73
     4
 40
14.0
 49
12.0
 74
     0
 49
-1.0
 74
     0
 49
0.0
 74
     0
 49
-1.0
 74
     0
  0
LTYPE
  5
42
330
5
100
AcDbSymbolTableRecord
100
AcDbLinetypeTableRecord
  2
LONG_DASHED
 70
     0
  3
Long_Dashed
 72
    65
 73
     2
 40
15.0
 49
10.0
 74
     0
 49
-5.0
 74
     0
  0
LTYPE
  5
43
330
5
100
AcDbSymbolTableRecord
100
AcDbLinetypeTableRecord
  2
DASH_CENTER
 70
     0
  3
Dash_Center
 72
    65
 73
     4
 40
14.0
 49
11.0
 74
     0
 49
-1.0
 74
     0
 49
1.0
 74
     0
 49
-1.0
 74
     0
  0
LTYPE
  5
44
330
5
100
AcDbSymbolTableRecord
100
AcDbLinetypeTableRecord
  2
PHANTOM
 70
     0
  3
Phantom
 72
    65
 73
     6
 40
13.0
 49
10.0
 74
     0
 49
-1.0
 74
     0
 49
0.0
 74
     0
 49
-1.0
 74
     0
 49
0.0
 74
     0
 49
-1.0
 74
     0
  0
LTYPE
  5
45
330
5
100
AcDbSymbolTableRecord
100
AcDbLinetypeTableRecord
  2
CENTER_DASH_DASH
 70
     0
  3
Center_Dash_Dash
 72
    65
 73
     6
 40
14.0
 49
9.0
 74
     0
 49
-1.0
 74
     0
 49
1.0
 74
     0
 49
-1.0
 74
     0
 49
1.0
 74
     0
 49
-1.0
 74
     0
  0
LTYPE
  5
46
330
5
100
AcDbSymbolTableRecord
100
AcDbLinetypeTableRecord
  2
CHAIN
 70
     0
  3
CHAIN
 72
    65
 73
     4
 40
4.0
 49
1.0
 74
     0
 49
-1.0
 74
     0
 49
1.0
 74
     0
 49
-1.0
 74
     0
  0
ENDTAB
  0
TABLE
  2
LAYER
  5
2
330
0
100
AcDbSymbolTable
 70
     7
  0
LAYER
  5
10
330
2
100
AcDbSymbolTableRecord
100
AcDbLayerTableRecord
  2
0
 70
     0
 62
     7
  6
Continuous
370
    -3
390
F
  0
LAYER
  5
47
330
2
100
AcDbSymbolTableRecord
100
AcDbLayerTableRecord
  2
1
 70
     0
 62
     7
  6
Continuous
370
    -3
390
F
  0
LAYER
  5
48
330
2
100
AcDbSymbolTableRecord
100
AcDbLayerTableRecord
  2
Bemaßungen_TC_020513_DIN_
 70
     0
 62
     7
  6
Continuous
370
    -3
390
F
  0
LAYER
  5
49
330
2
100
AcDbSymbolTableRecord
100
AcDbLayerTableRecord
  2
Mittellinie_TC_020513_DIN_
 70
     0
 62
     7
  6
Continuous
370
    -3
390
F
  0
LAYER
  5
4A
330
2
100
AcDbSymbolTableRecord
100
AcDbLayerTableRecord
  2
Mittelpunktmarkierung_TC_020513_DIN_
 70
     0
 62
     7
  6
Continuous
370
    -3
390
F
  0
LAYER
  5
4B
330
2
100
AcDbSymbolTableRecord
100
AcDbLayerTableRecord
  2
Sichtbare_Kanten_TC_020513_DIN_
 70
     0
 62
     7
  6
Continuous
370
    -3
390
F
  0
LAYER
  5
4C
330
2
100
AcDbSymbolTableRecord
100
AcDbLayerTableRecord
  2
Skizziergeometrie_TC_020513_DIN_
 70
     0
 62
     7
  6
Continuous
370
    -3
390
F
  0
ENDTAB
  0
TABLE
  2
STYLE
  5
3
330
0
100
AcDbSymbolTable
 70
     4
  0
STYLE
  5
11
330
3
100
AcDbSymbolTableRecord
100
AcDbTextStyleTableRecord
  2
Standard
 70
     0
 40
0.0
 41
1.0
 50
0.0
 71
     0
 42
0.2
  3
txt
  4

  0
STYLE
  5
95
330
3
100
AcDbSymbolTableRecord
100
AcDbTextStyleTableRecord
  2
CONVERTER_11
 70
     0
 40
0.0
 41
0.9
 50
0.0
 71
     0
 42
0.2
  3
txt.shx
  4

  0
STYLE
  5
98
330
3
100
AcDbSymbolTableRecord
100
AcDbTextStyleTableRecord
  2
CONVERTER_12
 70
     0
 40
0.0
 41
1.035
 50
0.0
 71
     0
 42
0.2
  3
txt.shx
  4

  0
STYLE
  5
516
330
3
100
AcDbSymbolTableRecord
100
AcDbTextStyleTableRecord
  2
CONVERTER_13
 70
     0
 40
0.0
 41
0.95
 50
0.0
 71
     0
 42
0.2
  3
simplex.shx
  4

  0
ENDTAB
  0
TABLE
  2
VIEW
  5
6
330
0
100
AcDbSymbolTable
 70
     0
  0
ENDTAB
  0
TABLE
  2
UCS
  5
7
330
0
100
AcDbSymbolTable
 70
     0
  0
ENDTAB
  0
TABLE
  2
APPID
  5
9
330
0
100
AcDbSymbolTable
 70
     1
  0
APPID
  5
12
330
9
100
AcDbSymbolTableRecord
100
AcDbRegAppTableRecord
  2
ACAD
 70
     0
  0
ENDTAB
  0
TABLE
  2
DIMSTYLE
  5
A
330
0
100
AcDbSymbolTable
 70
    11
100
AcDbDimStyleTable
  0
DIMSTYLE
105
27
330
A
100
AcDbSymbolTableRecord
100
AcDbDimStyleTableRecord
  2
Standard
 70
     0
178
     0
340
11
  0
DIMSTYLE
105
527
102
{ACAD_REACTORS
330
528
102
}
330
A
100
AcDbSymbolTableRecord
100
AcDbDimStyleTableRecord
  2
ME10_DIM_10
 70
     0
 41
3.0
 42
0.5
 44
1.0
 73
     0
 74
     0
 77
     1
 78
     8
140
3.0
147
2.0
172
     1
173
     1
174
     1
175
     1
176
     2
177
     2
271
     2
178
     4
271
     2
340
516
  0
DIMSTYLE
105
532
102
{ACAD_REACTORS
330
533
102
}
330
A
100
AcDbSymbolTableRecord
100
AcDbDimStyleTableRecord
  2
ME10_DIM_11
 70
     0
 41
3.0
 42
0.5
 44
1.0
 73
     0
 74
     0
 77
     1
 78
     8
140
3.0
147
2.0
172
     1
173
     1
174
     1
175
     1
176
     2
177
     2
271
     2
178
     4
271
     2
340
516
  0
DIMSTYLE
105
53D
102
{ACAD_REACTORS
330
53E
102
}
330
A
100
AcDbSymbolTableRecord
100
AcDbDimStyleTableRecord
  2
ME10_DIM_12
 70
     0
 41
3.0
 42
0.5
 44
1.0
 73
     0
 74
     0
 77
     1
 78
     8
140
3.0
147
2.0
172
     1
173
     1
174
     1
175
     1
176
     2
177
     2
271
     2
178
     4
271
     2
340
516
  0
DIMSTYLE
105
548
102
{ACAD_REACTORS
330
549
102
}
330
A
100
AcDbSymbolTableRecord
100
AcDbDimStyleTableRecord
  2
ME10_DIM_13
 70
     0
 41
3.0
 42
0.5
 44
1.0
 73
     0
 74
     0
 77
     1
 78
     8
140
3.0
147
2.0
172
     1
173
     1
174
     1
175
     1
176
     2
177
     2
271
     2
178
     4
271
     2
340
516
  0
DIMSTYLE
105
553
102
{ACAD_REACTORS
330
554
102
}
330
A
100
AcDbSymbolTableRecord
100
AcDbDimStyleTableRecord
  2
ME10_DIM_14
 70
     0
 41
3.0
 42
0.5
 44
1.0
 73
     0
 74
     0
 77
     1
 78
     8
140
3.0
147
2.0
172
     1
173
     1
174
     1
175
     1
176
     2
177
     2
271
     2
178
     4
271
     2
340
516
  0
DIMSTYLE
105
55E
102
{ACAD_REACTORS
330
55F
102
}
330
A
100
AcDbSymbolTableRecord
100
AcDbDimStyleTableRecord
  2
ME10_DIM_15
 70
     0
 41
3.0
 42
0.5
 44
1.0
 73
     0
 74
     0
 77
     1
 78
     8
140
3.0
147
2.0
172
     1
173
     1
174
     1
175
     1
176
     2
177
     2
271
     2
178
     4
271
     2
340
516
  0
DIMSTYLE
105
569
102
{ACAD_REACTORS
330
56A
102
}
330
A
100
AcDbSymbolTableRecord
100
AcDbDimStyleTableRecord
  2
ME10_DIM_16
 70
     0
 41
3.0
 42
0.5
 44
1.0
 73
     0
 74
     0
 77
     1
 78
     8
140
3.0
147
2.0
172
     1
173
     1
174
     1
175
     1
176
     2
177
     2
271
     2
178
     4
271
     2
340
516
  0
DIMSTYLE
105
574
102
{ACAD_REACTORS
330
575
102
}
330
A
100
AcDbSymbolTableRecord
100
AcDbDimStyleTableRecord
  2
ME10_DIM_17
 70
     0
 41
3.0
 42
0.5
 44
1.0
 73
     0
 74
     0
 77
     1
 78
     8
140
3.0
147
2.0
172
     1
173
     1
174
     1
175
     1
176
     2
177
     2
271
     2
178
     4
271
     2
340
516
  0
DIMSTYLE
105
57F
102
{ACAD_REACTORS
330
580
102
}
330
A
100
AcDbSymbolTableRecord
100
AcDbDimStyleTableRecord
  2
ME10_DIM_18
 70
     0
 41
3.0
 42
0.5
 44
1.0
 73
     0
 74
     0
 77
     1
 78
     8
140
3.0
147
2.0
172
     1
173
     1
174
     1
175
     1
176
     2
177
     2
271
     2
178
     4
271
     2
340
516
  0
DIMSTYLE
105
58A
102
{ACAD_REACTORS
330
58B
102
}
330
A
100
AcDbSymbolTableRecord
100
AcDbDimStyleTableRecord
  2
ME10_DIM_19
 70
     0
 41
3.0
 42
0.5
 44
1.0
 73
     0
 74
     0
 77
     1
 78
     8
140
3.0
147
2.0
172
     1
173
     1
174
     1
175
     1
176
     2
177
     2
271
     2
178
     4
271
     2
340
516
  0
ENDTAB
  0
TABLE
  2
BLOCK_RECORD
  5
1
330
0
100
AcDbSymbolTable
 70
    12
  0
BLOCK_RECORD
  5
1F
330
1
100
AcDbSymbolTableRecord
100
AcDbBlockTableRecord
  2
*Model_Space
340
22
  0
BLOCK_RECORD
  5
1B
330
1
100
AcDbSymbolTableRecord
100
AcDbBlockTableRecord
  2
*Paper_Space
340
1E
  0
BLOCK_RECORD
  5
23
330
1
100
AcDbSymbolTableRecord
100
AcDbBlockTableRecord
  2
*Paper_Space0
340
26
  0
BLOCK_RECORD
  5
4D
330
1
100
AcDbSymbolTableRecord
100
AcDbBlockTableRecord
  2
_formato_A4
340
0
102
{BLKREFS
331
50
102
}
  0
BLOCK_RECORD
  5
51C
330
1
100
AcDbSymbolTableRecord
100
AcDbBlockTableRecord
  2
*D2
340
0
  0
BLOCK_RECORD
  5
529
330
1
100
AcDbSymbolTableRecord
100
AcDbBlockTableRecord
  2
*D3
340
0
  0
BLOCK_RECORD
  5
534
330
1
100
AcDbSymbolTableRecord
100
AcDbBlockTableRecord
  2
*D4
340
0
  0
BLOCK_RECORD
  5
53F
330
1
100
AcDbSymbolTableRecord
100
AcDbBlockTableRecord
  2
*D5
340
0
  0
BLOCK_RECORD
  5
54A
330
1
100
AcDbSymbolTableRecord
100
AcDbBlockTableRecord
  2
*D6
340
0
  0
BLOCK_RECORD
  5
555
330
1
100
AcDbSymbolTableRecord
100
AcDbBlockTableRecord
  2
*D7
340
0
  0
BLOCK_RECORD
  5
560
330
1
100
AcDbSymbolTableRecord
100
AcDbBlockTableRecord
  2
*D8
340
0
  0
BLOCK_RECORD
  5
56B
330
1
100
AcDbSymbolTableRecord
100
AcDbBlockTableRecord
  2
*D9
340
0
  0
BLOCK_RECORD
  5
576
330
1
100
AcDbSymbolTableRecord
100
AcDbBlockTableRecord
  2
*D10
340
0
  0
BLOCK_RECORD
  5
581
330
1
100
AcDbSymbolTableRecord
100
AcDbBlockTableRecord
  2
*D11
340
0
  0
ENDTAB
  0
ENDSEC
  0
SECTION
  2
BLOCKS
  0
BLOCK
  5
20
330
1F
100
AcDbEntity
  8
0
100
AcDbBlockBegin
  2
*Model_Space
 70
     0
 10
0.0
 20
0.0
 30
0.0
  3
*Model_Space
  1

  0
ENDBLK
  5
21
330
1F
100
AcDbEntity
  8
0
100
AcDbBlockEnd
  0
BLOCK
  5
1C
330
1B
100
AcDbEntity
 67
     1
  8
0
100
AcDbBlockBegin
  2
*Paper_Space
 70
     0
 10
0.0
 20
0.0
 30
0.0
  3
*Paper_Space
  1

  0
ENDBLK
  5
1D
330
1B
100
AcDbEntity
 67
     1
  8
0
100
AcDbBlockEnd
  0
BLOCK
  5
24
330
23
100
AcDbEntity
  8
0
100
AcDbBlockBegin
  2
*Paper_Space0
 70
     0
 10
0.0
 20
0.0
 30
0.0
  3
*Paper_Space0
  1

  0
ENDBLK
  5
25
330
23
100
AcDbEntity
  8
0
100
AcDbBlockEnd
  0
BLOCK
  5
4E
330
4D
100
AcDbEntity
  8
0
100
AcDbBlockBegin
  2
_formato_A4
 70
     0
 10
296.9999999999999
 20
0.0
 30
0.0
  3
_formato_A4
  1

  0
LINE
  5
51
330
4D
100
AcDbEntity
  8
1
  6
Continuous
 62
     7
100
AcDbLine
 10
108.0
 20
9.99999999999986
 30
0.0
 11
138.0
 21
9.99999999999986
 31
0.0
  0
LINE
  5
52
330
4D
100
AcDbEntity
  8
1
  6
Continuous
 62
     7
100
AcDbLine
 10
108.0
 20
14.9999999999999
 30
0.0
 11
138.0
 21
14.9999999999999
 31
0.0
  0
LINE
  5
53
330
4D
100
AcDbEntity
  8
1
  6
Continuous
 62
     7
100
AcDbLine
 10
247.9999999999999
 20
20.0
 30
0.0
 11
247.9999999999999
 21
5.0
 31
0.0
  0
LINE
  5
54
330
4D
100
AcDbEntity
  8
1
  6
Continuous
 62
     7
100
AcDbLine
 10
265.352601377485
 20
20.0
 30
0.0
 11
265.352601377485
 21
5.0
 31
0.0
  0
LINE
  5
55
330
4D
100
AcDbEntity
  8
1
  6
Continuous
 62
     7
100
AcDbLine
 10
138.0
 20
20.0
 30
0.0
 11
138.0
 21
5.0
 31
0.0
  0
LINE
  5
56
330
4D
100
AcDbEntity
  8
1
  6
Continuous
 62
     7
100
AcDbLine
 10
148.5
 20
210.0
 30
0.0
 11
148.5
 21
195.0
 31
0.0
  0
LINE
  5
57
330
4D
100
AcDbEntity
  8
1
  6
Continuous
 62
     7
100
AcDbLine
 10
0.0
 20
0.0
 30
0.0
 11
296.9999999999999
 21
0.0
 31
0.0
  0
LINE
  5
58
330
4D
100
AcDbEntity
  8
1
  6
Continuous
 62
     7
100
AcDbLine
 10
0.0
 20
210.0
 30
0.0
 11
0.0
 21
0.0
 31
0.0
  0
LINE
  5
59
330
4D
100
AcDbEntity
  8
1
  6
Continuous
 62
     7
100
AcDbLine
 10
296.9999999999999
 20
210.0
 30
0.0
 11
0.0
 21
210.0
 31
0.0
  0
LINE
  5
5A
330
4D
100
AcDbEntity
  8
1
  6
Continuous
 62
     7
100
AcDbLine
 10
296.9999999999999
 20
0.0
 30
0.0
 11
296.9999999999999
 21
210.0
 31
0.0
  0
LINE
  5
5B
330
4D
100
AcDbEntity
  8
1
  6
Continuous
 62
     7
100
AcDbLine
 10
4.99999999999989
 20
5.0
 30
0.0
 11
108.0
 21
5.0
 31
0.0
  0
LINE
  5
5C
330
4D
100
AcDbEntity
  8
1
  6
Continuous
 62
     7
100
AcDbLine
 10
291.9999999999999
 20
5.0
 30
0.0
 11
291.9999999999999
 21
189.0
 31
0.0
  0
LINE
  5
5D
330
4D
100
AcDbEntity
  8
1
  6
Continuous
 62
     7
100
AcDbLine
 10
291.9999999999999
 20
189.0
 30
0.0
 11
4.99999999999989
 21
189.0
 31
0.0
  0
LINE
  5
5E
102
{ACAD_REACTORS
330
9F
102
}
330
4D
100
AcDbEntity
  8
1
  6
Continuous
 62
     7
100
AcDbLine
 10
281.009634022076
 20
10.0774998398326
 30
0.0
 11
281.009634022076
 21
14.9225001601674
 31
0.0
  0
LINE
  5
5F
102
{ACAD_REACTORS
330
9C
102
}
330
4D
100
AcDbEntity
  8
1
  6
Continuous
 62
     7
100
AcDbLine
 10
279.6763006887431
 20
12.5
 30
0.0
 11
279.6763006887431
 21
14.2320508075688
 31
0.0
  0
LINE
  5
60
102
{ACAD_REACTORS
330
9C
102
}
330
4D
100
AcDbEntity
  8
1
  6
Continuous
 62
     7
100
AcDbLine
 10
279.6763006887431
 20
14.2320508075688
 30
0.0
 11
278.82063825604
 21
12.75
 31
0.0
  0
LINE
  5
61
102
{ACAD_REACTORS
330
9C
102
}
330
4D
100
AcDbEntity
  8
1
  6
Continuous
 62
     7
100
AcDbLine
 10
278.531963121445
 20
12.75
 30
0.0
 11
277.6763006887431
 21
14.2320508075688
 31
0.0
  0
LINE
  5
62
102
{ACAD_REACTORS
330
9C
102
}
330
4D
100
AcDbEntity
  8
1
  6
Continuous
 62
     7
100
AcDbLine
 10
277.6763006887431
 20
14.2320508075688
 30
0.0
 11
277.6763006887431
 21
12.5
 31
0.0
  0
LINE
  5
63
330
4D
100
AcDbEntity
  8
1
  6
Continuous
 62
     7
100
AcDbLine
 10
270.2598654136011
 20
12.6443642643413
 30
0.0
 11
278.6763006887431
 21
17.5
 31
0.0
  0
LINE
  5
64
330
4D
100
AcDbEntity
  8
1
  6
Continuous
 62
     7
100
AcDbLine
 10
278.6763006887431
 20
17.5
 30
0.0
 11
287.092735963884
 21
12.6443642643413
 31
0.0
  0
LINE
  5
65
330
4D
100
AcDbEntity
  8
1
  6
Continuous
 62
     7
100
AcDbLine
 10
287.092735963884
 20
12.3556357356586
 30
0.0
 11
278.6763006887431
 21
7.5
 31
0.0
  0
LINE
  5
66
330
4D
100
AcDbEntity
  8
1
  6
Continuous
 62
     7
100
AcDbLine
 10
278.6763006887431
 20
7.5
 30
0.0
 11
270.2598654136011
 21
12.3556357356586
 31
0.0
  0
LINE
  5
67
102
{ACAD_REACTORS
330
9C
102
}
330
4D
100
AcDbEntity
  8
1
  6
Continuous
 62
     7
100
AcDbLine
 10
277.009634022076
 20
12.5
 30
0.0
 11
277.009634022076
 21
15.7312173120346
 31
0.0
  0
LINE
  5
68
102
{ACAD_REACTORS
330
9C
102
}
330
4D
100
AcDbEntity
  8
1
  6
Continuous
 62
     7
100
AcDbLine
 10
277.5040677056999
 20
15.8637004182723
 30
0.0
 11
278.6763006887431
 21
13.8333333333333
 31
0.0
  0
LINE
  5
69
102
{ACAD_REACTORS
330
9C
102
}
330
4D
100
AcDbEntity
  8
1
  6
Continuous
 62
     7
100
AcDbLine
 10
277.009634022076
 20
12.5
 30
0.0
 11
277.009634022076
 21
10.8475850726329
 31
0.0
  0
LINE
  5
6A
102
{ACAD_REACTORS
330
9C
102
}
330
4D
100
AcDbEntity
  8
1
  6
Continuous
 62
     7
100
AcDbLine
 10
277.6763006887431
 20
10.8475850726329
 30
0.0
 11
277.6763006887431
 21
12.5
 31
0.0
  0
LINE
  5
6B
102
{ACAD_REACTORS
330
9C
102
}
330
4D
100
AcDbEntity
  8
1
  6
Continuous
 62
     7
100
AcDbLine
 10
279.6763006887431
 20
12.5
 30
0.0
 11
279.6763006887431
 21
9.3082690706018
 31
0.0
  0
LINE
  5
6C
102
{ACAD_REACTORS
330
9C
102
}
330
4D
100
AcDbEntity
  8
1
  6
Continuous
 62
     7
100
AcDbLine
 10
280.3429673554089
 20
9.3082690706018
 30
0.0
 11
280.3429673554089
 21
15.7312173120346
 31
0.0
  0
LINE
  5
6D
102
{ACAD_REACTORS
330
9C
102
}
330
4D
100
AcDbEntity
  8
1
  6
Continuous
 62
     7
100
AcDbLine
 10
279.848533671786
 20
15.8637004182723
 30
0.0
 11
278.6763006887431
 21
13.8333333333333
 31
0.0
  0
LINE
  5
6E
102
{ACAD_REACTORS
330
9D
102
}
330
4D
100
AcDbEntity
  8
1
  6
Continuous
 62
     7
100
AcDbLine
 10
275.6763006887431
 20
10.2700211480326
 30
0.0
 11
275.6763006887431
 21
14.9225001601674
 31
0.0
  0
LINE
  5
6F
102
{ACAD_REACTORS
330
9D
102
}
330
4D
100
AcDbEntity
  8
1
  6
Continuous
 62
     7
100
AcDbLine
 10
276.3429673554089
 20
14.9225001601674
 30
0.0
 11
276.3429673554089
 21
10.2700211480327
 31
0.0
  0
LINE
  5
70
102
{ACAD_REACTORS
330
9D
102
}
330
4D
100
AcDbEntity
  8
1
  6
Continuous
 62
     7
100
AcDbLine
 10
276.3429673554089
 20
10.2700211480327
 30
0.0
 11
278.5095415065729
 21
9.0200745223616
 31
0.0
  0
LINE
  5
71
102
{ACAD_REACTORS
330
9D
102
}
330
4D
100
AcDbEntity
  8
1
  6
Continuous
 62
     7
100
AcDbLine
 10
278.176393204246
 20
8.44261746499581
 30
0.0
 11
276.0098190530829
 21
9.69256409066691
 31
0.0
  0
LINE
  5
72
102
{ACAD_REACTORS
330
9E
102
}
330
4D
100
AcDbEntity
  8
1
  6
Continuous
 62
     7
100
AcDbLine
 10
275.009634022076
 20
14.1532693909367
 30
0.0
 11
275.009634022076
 21
11.0392519172633
 31
0.0
  0
LINE
  5
73
102
{ACAD_REACTORS
330
9E
102
}
330
4D
100
AcDbEntity
  8
1
  6
Continuous
 62
     7
100
AcDbLine
 10
275.009634022076
 20
11.0392519172633
 30
0.0
 11
275.009634022076
 21
10.8467306090632
 31
0.0
  0
LINE
  5
74
102
{ACAD_REACTORS
330
9E
102
}
330
4D
100
AcDbEntity
  8
1
  6
Continuous
 62
     7
100
AcDbLine
 10
274.3429673554089
 20
10.8467306090632
 30
0.0
 11
274.3429673554089
 21
14.1532693909367
 31
0.0
  0
LINE
  5
75
102
{ACAD_REACTORS
330
9F
102
}
330
4D
100
AcDbEntity
  8
1
  6
Continuous
 62
     7
100
AcDbLine
 10
281.5095415065729
 20
15.2112286888503
 30
0.0
 11
282.842874839906
 21
14.4419979196194
 31
0.0
  0
LINE
  5
76
102
{ACAD_REACTORS
330
9F
102
}
330
4D
100
AcDbEntity
  8
1
  6
Continuous
 62
     7
100
AcDbLine
 10
282.50972653758
 20
13.8645408622538
 30
0.0
 11
281.6763006887431
 21
14.345363467352
 31
0.0
  0
LINE
  5
77
102
{ACAD_REACTORS
330
9F
102
}
330
4D
100
AcDbEntity
  8
1
  6
Continuous
 62
     7
100
AcDbLine
 10
281.6763006887431
 20
14.345363467352
 30
0.0
 11
281.6763006887431
 21
12.8333333333333
 31
0.0
  0
LINE
  5
78
102
{ACAD_REACTORS
330
9F
102
}
330
4D
100
AcDbEntity
  8
1
  6
Continuous
 62
     7
100
AcDbLine
 10
281.6763006887431
 20
12.8333333333333
 30
0.0
 11
282.6763006887431
 21
12.8333333333333
 31
0.0
  0
LINE
  5
79
102
{ACAD_REACTORS
330
9F
102
}
330
4D
100
AcDbEntity
  8
1
  6
Continuous
 62
     7
100
AcDbLine
 10
282.6763006887431
 20
12.1666666666666
 30
0.0
 11
281.6763006887431
 21
12.1666666666666
 31
0.0
  0
LINE
  5
7A
102
{ACAD_REACTORS
330
9F
102
}
330
4D
100
AcDbEntity
  8
1
  6
Continuous
 62
     7
100
AcDbLine
 10
281.6763006887431
 20
12.1666666666666
 30
0.0
 11
281.6763006887431
 21
10.6546365326479
 31
0.0
  0
LINE
  5
7B
102
{ACAD_REACTORS
330
9F
102
}
330
4D
100
AcDbEntity
  8
1
  6
Continuous
 62
     7
100
AcDbLine
 10
281.6763006887431
 20
10.6546365326479
 30
0.0
 11
282.50972653758
 21
11.1354591377462
 31
0.0
  0
LINE
  5
7C
102
{ACAD_REACTORS
330
9F
102
}
330
4D
100
AcDbEntity
  8
1
  6
Continuous
 62
     7
100
AcDbLine
 10
282.842874839906
 20
10.5580020803803
 30
0.0
 11
281.5095415065729
 21
9.78877131114973
 31
0.0
  0
LINE
  5
7D
330
4D
100
AcDbEntity
  8
1
  6
Continuous
 62
     7
100
AcDbLine
 10
108.0
 20
25.0
 30
0.0
 11
291.9999999999999
 21
25.0
 31
0.0
  0
LINE
  5
7E
330
4D
100
AcDbEntity
  8
1
  6
Continuous
 62
     7
100
AcDbLine
 10
115.0
 20
20.0
 30
0.0
 11
115.0
 21
25.0
 31
0.0
  0
LINE
  5
7F
330
4D
100
AcDbEntity
  8
1
  6
Continuous
 62
     7
100
AcDbLine
 10
133.0
 20
20.0
 30
0.0
 11
133.0
 21
25.0
 31
0.0
  0
LINE
  5
80
330
4D
100
AcDbEntity
  8
1
  6
Continuous
 62
     7
100
AcDbLine
 10
4.99999999999989
 20
189.0
 30
0.0
 11
4.99999999999989
 21
5.0
 31
0.0
  0
LINE
  5
81
330
4D
100
AcDbEntity
  8
1
  6
Continuous
 62
     7
100
AcDbLine
 10
108.0
 20
20.0
 30
0.0
 11
291.9999999999999
 21
20.0
 31
0.0
  0
LINE
  5
82
330
4D
100
AcDbEntity
  8
1
  6
Continuous
 62
     7
100
AcDbLine
 10
108.0
 20
25.0
 30
0.0
 11
108.0
 21
5.0
 31
0.0
  0
LINE
  5
83
330
4D
100
AcDbEntity
  8
1
  6
Continuous
 62
     7
100
AcDbLine
 10
108.0
 20
5.0
 30
0.0
 11
291.9999999999999
 21
5.0
 31
0.0
  0
ARC
  5
84
102
{ACAD_REACTORS
330
9C
102
}
330
4D
100
AcDbEntity
  8
1
  6
Continuous
 62
     7
100
AcDbCircle
 10
278.6763006887431
 20
12.8333333333333
 30
0.0
 40
0.1666666666672217
100
AcDbArc
 50
209.9999999998767
 51
329.9999999999279
  0
ARC
  5
85
102
{ACAD_REACTORS
330
9D
102
}
330
4D
100
AcDbEntity
  8
1
  6
Continuous
 62
     7
100
AcDbCircle
 10
276.3429673554089
 20
10.2700211480327
 30
0.0
 40
0.666666666665833
100
AcDbArc
 50
180.0000000000087
 51
240.018360631179
  0
ARC
  5
86
330
4D
100
AcDbEntity
  8
1
  6
Continuous
 62
     7
100
AcDbCircle
 10
270.343152489183
 20
12.5
 30
0.0
 40
0.1666666666666998
100
AcDbArc
 50
119.9816393689606
 51
240.0183606310565
  0
ARC
  5
87
330
4D
100
AcDbEntity
  8
1
  6
Continuous
 62
     7
100
AcDbCircle
 10
287.009448888303
 20
12.5
 30
0.0
 40
0.1666666666663598
100
AcDbArc
 50
299.9816393686896
 51
60.01836063129329
  0
ARC
  5
88
102
{ACAD_REACTORS
330
9F
102
}
330
4D
100
AcDbEntity
  8
1
  6
Continuous
 62
     7
100
AcDbCircle
 10
281.3429673554089
 20
14.9225001601674
 30
0.0
 40
0.3333333333337433
100
AcDbArc
 50
60.01836063103966
 51
180.0
  0
ARC
  5
89
102
{ACAD_REACTORS
330
9F
102
}
330
4D
100
AcDbEntity
  8
1
  6
Continuous
 62
     7
100
AcDbCircle
 10
281.3429673554089
 20
10.0774998398326
 30
0.0
 40
0.3333333333329165
100
AcDbArc
 50
180.0
 51
299.9816393689629
  0
ARC
  5
8A
102
{ACAD_REACTORS
330
9C
102
}
330
4D
100
AcDbEntity
  8
1
  6
Continuous
 62
     7
100
AcDbCircle
 10
277.274600234551
 20
15.7312173120346
 30
0.0
 40
0.264966212476014
100
AcDbArc
 50
29.99999999992336
 51
180.0
  0
ARC
  5
8B
102
{ACAD_REACTORS
330
9C
102
}
330
4D
100
AcDbEntity
  8
1
  6
Continuous
 62
     7
100
AcDbCircle
 10
277.3429673554089
 20
10.8475850726329
 30
0.0
 40
0.3333333333329165
100
AcDbArc
 50
180.0
 51
0.0
  0
ARC
  5
8C
102
{ACAD_REACTORS
330
9C
102
}
330
4D
100
AcDbEntity
  8
1
  6
Continuous
 62
     7
100
AcDbCircle
 10
280.009634022076
 20
9.3082690706018
 30
0.0
 40
0.3333333333329165
100
AcDbArc
 50
180.0
 51
0.0
  0
ARC
  5
8D
102
{ACAD_REACTORS
330
9C
102
}
330
4D
100
AcDbEntity
  8
1
  6
Continuous
 62
     7
100
AcDbCircle
 10
280.0780011429339
 20
15.7312173120346
 30
0.0
 40
0.2649662124750307
100
AcDbArc
 50
0.0
 51
149.9999999999599
  0
ARC
  5
8E
102
{ACAD_REACTORS
330
9D
102
}
330
4D
100
AcDbEntity
  8
1
  6
Continuous
 62
     7
100
AcDbCircle
 10
276.009634022076
 20
14.9225001601674
 30
0.0
 40
0.3333333333329165
100
AcDbArc
 50
0.0
 51
180.0
  0
ARC
  5
8F
102
{ACAD_REACTORS
330
9D
102
}
330
4D
100
AcDbEntity
  8
1
  6
Continuous
 62
     7
100
AcDbCircle
 10
278.3429673554089
 20
8.7313459936787
 30
0.0
 40
0.3333333333332227
100
AcDbArc
 50
240.0183606311911
 51
60.01836063103995
  0
ARC
  5
90
102
{ACAD_REACTORS
330
9E
102
}
330
4D
100
AcDbEntity
  8
1
  6
Continuous
 62
     7
100
AcDbCircle
 10
274.6763006887431
 20
14.1532693909367
 30
0.0
 40
0.3333333333329165
100
AcDbArc
 50
0.0
 51
180.0
  0
ARC
  5
91
102
{ACAD_REACTORS
330
9E
102
}
330
4D
100
AcDbEntity
  8
1
  6
Continuous
 62
     7
100
AcDbCircle
 10
274.6763006887431
 20
10.8467306090632
 30
0.0
 40
0.333333333334167
100
AcDbArc
 50
180.0
 51
0.0
  0
ARC
  5
92
102
{ACAD_REACTORS
330
9F
102
}
330
4D
100
AcDbEntity
  8
1
  6
Continuous
 62
     7
100
AcDbCircle
 10
282.6763006887431
 20
14.1532693909367
 30
0.0
 40
0.3333333333333172
100
AcDbArc
 50
240.0183606311666
 51
60.01836063117491
  0
ARC
  5
93
102
{ACAD_REACTORS
330
9F
102
}
330
4D
100
AcDbEntity
  8
1
  6
Continuous
 62
     7
100
AcDbCircle
 10
282.6763006887431
 20
12.5
 30
0.0
 40
0.3333333333333997
100
AcDbArc
 50
270.0
 51
90.0
  0
ARC
  5
94
102
{ACAD_REACTORS
330
9F
102
}
330
4D
100
AcDbEntity
  8
1
  6
Continuous
 62
     7
100
AcDbCircle
 10
282.6763006887431
 20
10.8467306090632
 30
0.0
 40
0.3333333333332335
100
AcDbArc
 50
299.9816393688079
 51
119.9816393688249
  0
MTEXT
  5
96
330
4D
100
AcDbEntity
  8
1
 62
     7
100
AcDbMText
 10
109.0
 20
7.49999999999987
 30
0.0
 40
3.0
 41
0.0
 71
     4
 72
     1
  1
Sign.
  7
CONVERTER_11
 73
     1
 44
0.75727272727273
  0
MTEXT
  5
97
330
4D
100
AcDbEntity
  8
1
 62
     7
100
AcDbMText
 10
109.0
 20
12.4999999999999
 30
0.0
 40
3.0
 41
0.0
 71
     4
 72
     1
  1
Date
  7
CONVERTER_11
 73
     1
 44
0.75727272727273
  0
MTEXT
  5
99
330
4D
100
AcDbEntity
  8
1
 62
     7
100
AcDbMText
 10
123.0
 20
17.4999999999999
 30
0.0
 40
2.5
 41
0.0
 71
     5
 72
     1
  1
dimensions in mm
  7
CONVERTER_12
 73
     1
 44
0.75727272727273
  0
MTEXT
  5
9A
330
4D
100
AcDbEntity
  8
1
 62
     7
100
AcDbMText
 10
151.5
 20
194.0
 30
0.0
 40
4.0
 41
0.0
 71
     5
 72
     1
  1
Diritti riservati      All rights reserved
  7
CONVERTER_11
 73
     1
 44
0.75727272727273
  0
MTEXT
  5
9B
330
4D
100
AcDbEntity
  8
1
 62
     7
100
AcDbMText
 10
256.6763006887431
 20
16.260639420756
 30
0.0
 40
3.0
 41
0.0
 71
     5
 72
     1
  1
Scale
  7
CONVERTER_11
 73
     1
 44
0.75727272727273
  0
HATCH
  5
9C
330
4D
100
AcDbEntity
  8
1
  6
Continuous
 62
     7
100
AcDbHatch
 10
0.0
 20
0.0
 30
0.0
210
0.0
220
0.0
230
1.0
  2
SOLID
 70
     1
 71
     1
 91
        1
 92
        1
 93
       16
 72
     2
 10
277.274600234551
 20
15.7312173120346
 40
0.264966212476014
 50
29.99999999992336
 51
180.0
 73
     1
 72
     1
 10
277.009634022076
 20
15.7312173120346
 11
277.009634022076
 21
12.5
 72
     1
 10
277.009634022076
 20
12.5
 11
277.009634022076
 21
10.8475850726329
 72
     2
 10
277.3429673554089
 20
10.8475850726329
 40
0.3333333333329165
 50
180.0
 51
360.0
 73
     1
 72
     1
 10
277.6763006887431
 20
10.8475850726329
 11
277.6763006887431
 21
12.5
 72
     1
 10
277.6763006887431
 20
12.5
 11
277.6763006887431
 21
14.2320508075688
 72
     1
 10
277.6763006887431
 20
14.2320508075688
 11
278.531963121445
 21
12.75
 72
     2
 10
278.6763006887431
 20
12.8333333333333
 40
0.1666666666672217
 50
209.9999999998767
 51
329.9999999999279
 73
     1
 72
     1
 10
278.82063825604
 20
12.75
 11
279.6763006887431
 21
14.2320508075688
 72
     1
 10
279.6763006887431
 20
14.2320508075688
 11
279.6763006887431
 21
12.5
 72
     1
 10
279.6763006887431
 20
12.5
 11
279.6763006887431
 21
9.3082690706018
 72
     2
 10
280.009634022076
 20
9.3082690706018
 40
0.3333333333329165
 50
180.0
 51
360.0
 73
     1
 72
     1
 10
280.3429673554089
 20
9.3082690706018
 11
280.3429673554089
 21
15.7312173120346
 72
     2
 10
280.0780011429339
 20
15.7312173120346
 40
0.2649662124750307
 50
0.0
 51
149.9999999999599
 73
     1
 72
     1
 10
279.848533671786
 20
15.8637004182723
 11
278.6763006887431
 21
13.8333333333333
 72
     1
 10
278.6763006887431
 20
13.8333333333333
 11
277.5040677056999
 21
15.8637004182723
 97
       16
330
6D
330
8D
330
6C
330
8C
330
6B
330
5F
330
60
330
84
330
61
330
62
330
6A
330
8B
330
69
330
67
330
8A
330
68
 75
     0
 76
     1
 98
        1
 10
0.0
 20
0.0
  0
HATCH
  5
9D
330
4D
100
AcDbEntity
  8
1
  6
Continuous
 62
     7
100
AcDbHatch
 10
0.0
 20
0.0
 30
0.0
210
0.0
220
0.0
230
1.0
  2
SOLID
 70
     1
 71
     1
 91
        1
 92
        1
 93
        7
 72
     1
 10
276.3429673554089
 20
14.9225001601674
 11
276.3429673554089
 21
10.2700211480327
 72
     1
 10
276.3429673554089
 20
10.2700211480327
 11
278.5095415065729
 21
9.0200745223616
 72
     2
 10
278.3429673554089
 20
8.731345993678698
 40
0.3333333333332227
 50
299.98163936896
 51
479.9816393688089
 73
     0
 72
     1
 10
278.176393204246
 20
8.44261746499581
 11
276.0098190530829
 21
9.69256409066691
 72
     2
 10
276.3429673554089
 20
10.2700211480327
 40
0.666666666665833
 50
119.981639368821
 51
179.9999999999913
 73
     0
 72
     1
 10
275.6763006887431
 20
10.2700211480326
 11
275.6763006887431
 21
14.9225001601674
 72
     2
 10
276.009634022076
 20
14.9225001601674
 40
0.3333333333329165
 50
180.0
 51
360.0
 73
     0
 97
        7
330
6F
330
70
330
8F
330
71
330
85
330
6E
330
8E
 75
     0
 76
     1
 98
        1
 10
0.0
 20
0.0
  0
HATCH
  5
9E
330
4D
100
AcDbEntity
  8
1
  6
Continuous
 62
     7
100
AcDbHatch
 10
0.0
 20
0.0
 30
0.0
210
0.0
220
0.0
230
1.0
  2
SOLID
 70
     1
 71
     1
 91
        1
 92
        1
 93
        5
 72
     1
 10
275.009634022076
 20
14.1532693909367
 11
275.009634022076
 21
11.0392519172633
 72
     1
 10
275.009634022076
 20
11.0392519172633
 11
275.009634022076
 21
10.8467306090632
 72
     2
 10
274.6763006887431
 20
10.8467306090632
 40
0.333333333334167
 50
0.0
 51
180.0
 73
     0
 72
     1
 10
274.3429673554089
 20
10.8467306090632
 11
274.3429673554089
 21
14.1532693909367
 72
     2
 10
274.6763006887431
 20
14.1532693909367
 40
0.3333333333329165
 50
180.0
 51
360.0
 73
     0
 97
        5
330
72
330
73
330
91
330
74
330
90
 75
     0
 76
     1
 98
        1
 10
0.0
 20
0.0
  0
HATCH
  5
9F
330
4D
100
AcDbEntity
  8
1
  6
Continuous
 62
     7
100
AcDbHatch
 10
0.0
 20
0.0
 30
0.0
210
0.0
220
0.0
230
1.0
  2
SOLID
 70
     1
 71
     1
 91
        1
 92
        1
 93
       14
 72
     1
 10
282.50972653758
 20
13.8645408622538
 11
281.6763006887431
 21
14.345363467352
 72
     1
 10
281.6763006887431
 20
14.345363467352
 11
281.6763006887431
 21
12.8333333333333
 72
     1
 10
281.6763006887431
 20
12.8333333333333
 11
282.6763006887431
 21
12.8333333333333
 72
     2
 10
282.6763006887431
 20
12.5
 40
0.3333333333333997
 50
270.0
 51
450.0
 73
     0
 72
     1
 10
282.6763006887431
 20
12.1666666666666
 11
281.6763006887431
 21
12.1666666666666
 72
     1
 10
281.6763006887431
 20
12.1666666666666
 11
281.6763006887431
 21
10.6546365326479
 72
     1
 10
281.6763006887431
 20
10.6546365326479
 11
282.50972653758
 21
11.1354591377462
 72
     2
 10
282.6763006887431
 20
10.8467306090632
 40
0.3333333333332335
 50
240.0183606311751
 51
420.0183606311921
 73
     0
 72
     1
 10
282.842874839906
 20
10.5580020803803
 11
281.5095415065729
 21
9.78877131114973
 72
     2
 10
281.3429673554089
 20
10.0774998398326
 40
0.3333333333329165
 50
60.01836063103707
 51
180.0
 73
     0
 72
     1
 10
281.009634022076
 20
10.0774998398326
 11
281.009634022076
 21
14.9225001601674
 72
     2
 10
281.3429673554089
 20
14.9225001601674
 40
0.3333333333337433
 50
180.0
 51
299.9816393689604
 73
     0
 72
     1
 10
281.5095415065729
 20
15.2112286888503
 11
282.842874839906
 21
14.4419979196194
 72
     2
 10
282.6763006887431
 20
14.1532693909367
 40
0.3333333333333172
 50
299.9816393688251
 51
479.9816393688335
 73
     0
 97
       14
330
75
330
88
330
5E
330
89
330
7C
330
94
330
7B
330
7A
330
79
330
93
330
78
330
77
330
76
330
92
 75
     0
 76
     1
 98
        1
 10
0.0
 20
0.0
  0
ENDBLK
  5
4F
330
4D
100
AcDbEntity
  8
0
100
AcDbBlockEnd
  0
BLOCK
  5
525
330
51C
100
AcDbEntity
  8
0
100
AcDbBlockBegin
  2
*D2
 70
     1
 10
0.0
 20
0.0
 30
0.0
  3
*D2
  1

  0
LINE
  5
51D
330
51C
100
AcDbEntity
  8
1
  6
Continuous
 62
     2
100
AcDbLine
 10
253.479853035845
 20
65.60311593229869
 30
0.0
 11
253.479853035845
 21
71.60311593229869
 31
0.0
  0
LINE
  5
51E
330
51C
100
AcDbEntity
  8
1
  6
Continuous
 62
     2
100
AcDbLine
 10
253.479853035845
 20
61.60311593229879
 30
0.0
 11
253.479853035845
 21
65.60311593229869
 31
0.0
  0
LINE
  5
51F
330
51C
100
AcDbEntity
  8
1
  6
Continuous
 62
     2
100
AcDbLine
 10
253.479853035845
 20
53.79520997853169
 30
0.0
 11
253.479853035845
 21
61.60311593229879
 31
0.0
  0
LINE
  5
520
330
51C
100
AcDbEntity
  8
1
  6
Continuous
 62
     2
100
AcDbLine
 10
241.794767491102
 20
65.60311593229869
 30
0.0
 11
254.479853035845
 21
65.60311593229869
 31
0.0
  0
LINE
  5
521
330
51C
100
AcDbEntity
  8
1
  6
Continuous
 62
     2
100
AcDbLine
 10
241.794767491102
 20
61.60311593229879
 30
0.0
 11
254.479853035845
 21
61.60311593229879
 31
0.0
  0
SOLID
  5
522
330
51C
100
AcDbEntity
  8
1
 62
     2
100
AcDbTrace
 10
253.8748105286072
 20
58.60311593229879
 30
0.0
 11
253.0848955430828
 21
58.60311593229879
 31
0.0
 12
253.479853035845
 22
61.60311593229879
 32
0.0
 13
253.479853035845
 23
61.60311593229879
 33
0.0
  0
SOLID
  5
523
330
51C
100
AcDbEntity
  8
1
 62
     2
100
AcDbTrace
 10
253.0848955430828
 20
68.60311593229869
 30
0.0
 11
253.8748105286072
 21
68.60311593229869
 31
0.0
 12
253.479853035845
 22
65.60311593229869
 32
0.0
 13
253.479853035845
 23
65.60311593229869
 33
0.0
  0
MTEXT
  5
524
330
51C
100
AcDbEntity
  8
1
 62
     4
100
AcDbMText
 10
251.479853035845
 20
53.79520997853169
 30
0.0
 40
3.0
 41
0.0
 71
     7
 72
     1
  1
4
  7
CONVERTER_13
 11
0.0
 21
1.0
 31
0.0
 73
     1
 44
0.60024009603842
  0
ENDBLK
  5
526
330
51C
100
AcDbEntity
  8
0
100
AcDbBlockEnd
  0
BLOCK
  5
530
330
529
100
AcDbEntity
  8
0
100
AcDbBlockBegin
  2
*D3
 70
     1
 10
0.0
 20
0.0
 30
0.0
  3
*D3
  1

  0
LINE
  5
52A
330
529
100
AcDbEntity
  8
1
  6
Continuous
 62
     2
100
AcDbLine
 10
241.2947674911021
 20
38.8563106383094
 30
0.0
 11
184.2947674911021
 21
38.8563106383094
 31
0.0
  0
LINE
  5
52B
330
529
100
AcDbEntity
  8
1
  6
Continuous
 62
     2
100
AcDbLine
 10
184.2947674911021
 20
61.10311593229881
 30
0.0
 11
184.2947674911021
 21
37.8563106383094
 31
0.0
  0
LINE
  5
52C
330
529
100
AcDbEntity
  8
1
  6
Continuous
 62
     2
100
AcDbLine
 10
241.2947674911021
 20
61.10311593229881
 30
0.0
 11
241.2947674911021
 21
37.8563106383094
 31
0.0
  0
SOLID
  5
52D
330
529
100
AcDbEntity
  8
1
 62
     2
100
AcDbTrace
 10
238.2947674911021
 20
38.46135314554721
 30
0.0
 11
238.2947674911021
 21
39.25126813107159
 31
0.0
 12
241.2947674911021
 22
38.8563106383094
 32
0.0
 13
241.2947674911021
 23
38.8563106383094
 33
0.0
  0
SOLID
  5
52E
330
529
100
AcDbEntity
  8
1
 62
     2
100
AcDbTrace
 10
187.2947674911021
 20
39.25126813107159
 30
0.0
 11
187.2947674911021
 21
38.46135314554721
 31
0.0
 12
184.2947674911021
 22
38.8563106383094
 32
0.0
 13
184.2947674911021
 23
38.8563106383094
 33
0.0
  0
MTEXT
  5
52F
330
529
100
AcDbEntity
  8
1
 62
     4
100
AcDbMText
 10
210.5447674911021
 20
40.8563106383094
 30
0.0
 40
3.0
 41
0.0
 71
     7
 72
     1
  1
57
  7
CONVERTER_13
 11
0.9999999999970619
 21
2.424068405545306E-6
 31
0.0
 73
     1
 44
0.60024009603842
  0
ENDBLK
  5
531
330
529
100
AcDbEntity
  8
0
100
AcDbBlockEnd
  0
BLOCK
  5
53B
330
534
100
AcDbEntity
  8
0
100
AcDbBlockBegin
  2
*D4
 70
     1
 10
0.0
 20
0.0
 30
0.0
  3
*D4
  1

  0
LINE
  5
535
330
534
100
AcDbEntity
  8
1
  6
Continuous
 62
     2
100
AcDbLine
 10
190.2947674911041
 20
49.96280215330829
 30
0.0
 11
235.2947674911041
 21
49.96280215330829
 31
0.0
  0
LINE
  5
536
330
534
100
AcDbEntity
  8
1
  6
Continuous
 62
     2
100
AcDbLine
 10
235.2947674911041
 20
58.60311593229869
 30
0.0
 11
235.2947674911041
 21
48.96280215330829
 31
0.0
  0
LINE
  5
537
330
534
100
AcDbEntity
  8
1
  6
Continuous
 62
     2
100
AcDbLine
 10
190.2947674911041
 20
58.60311593229869
 30
0.0
 11
190.2947674911041
 21
48.96280215330829
 31
0.0
  0
SOLID
  5
538
330
534
100
AcDbEntity
  8
1
 62
     2
100
AcDbTrace
 10
193.2947674911041
 20
50.35775964607048
 30
0.0
 11
193.2947674911041
 21
49.5678446605461
 31
0.0
 12
190.2947674911041
 22
49.96280215330829
 32
0.0
 13
190.2947674911041
 23
49.96280215330829
 33
0.0
  0
SOLID
  5
539
330
534
100
AcDbEntity
  8
1
 62
     2
100
AcDbTrace
 10
232.2947674911041
 20
49.5678446605461
 30
0.0
 11
232.2947674911041
 21
50.35775964607048
 31
0.0
 12
235.2947674911041
 22
49.96280215330829
 32
0.0
 13
235.2947674911041
 23
49.96280215330829
 33
0.0
  0
MTEXT
  5
53A
330
534
100
AcDbEntity
  8
1
 62
     4
100
AcDbMText
 10
210.5447674911041
 20
51.96280215330829
 30
0.0
 40
3.0
 41
0.0
 71
     7
 72
     1
  1
45
  7
CONVERTER_13
 11
0.9999999999970619
 21
2.424068405545306E-6
 31
0.0
 73
     1
 44
0.60024009603842
  0
ENDBLK
  5
53C
330
534
100
AcDbEntity
  8
0
100
AcDbBlockEnd
  0
BLOCK
  5
546
330
53F
100
AcDbEntity
  8
0
100
AcDbBlockBegin
  2
*D5
 70
     1
 10
0.0
 20
0.0
 30
0.0
  3
*D5
  1

  0
LINE
  5
540
330
53F
100
AcDbEntity
  8
1
  6
Continuous
 62
     2
100
AcDbLine
 10
184.2947674911021
 20
163.1698015676993
 30
0.0
 11
258.7287174628252
 21
163.1698015676993
 31
0.0
  0
LINE
  5
541
330
53F
100
AcDbEntity
  8
1
  6
Continuous
 62
     2
100
AcDbLine
 10
258.7287174628252
 20
117.1031159322983
 30
0.0
 11
258.7287174628252
 21
164.1698015676993
 31
0.0
  0
LINE
  5
542
330
53F
100
AcDbEntity
  8
1
  6
Continuous
 62
     2
100
AcDbLine
 10
184.2947674911021
 20
66.1031159322987
 30
0.0
 11
184.2947674911021
 21
164.1698015676993
 31
0.0
  0
SOLID
  5
543
330
53F
100
AcDbEntity
  8
1
 62
     2
100
AcDbTrace
 10
187.2947674911021
 20
163.5647590604615
 30
0.0
 11
187.2947674911021
 21
162.7748440749371
 31
0.0
 12
184.2947674911021
 22
163.1698015676993
 32
0.0
 13
184.2947674911021
 23
163.1698015676993
 33
0.0
  0
SOLID
  5
544
330
53F
100
AcDbEntity
  8
1
 62
     2
100
AcDbTrace
 10
255.7287174628252
 20
162.7748440749371
 30
0.0
 11
255.7287174628252
 21
163.5647590604615
 31
0.0
 12
258.7287174628252
 22
163.1698015676993
 32
0.0
 13
258.7287174628252
 23
163.1698015676993
 33
0.0
  0
MTEXT
  5
545
330
53F
100
AcDbEntity
  8
1
 62
     4
100
AcDbMText
 10
217.3867424769637
 20
165.4698015676993
 30
0.0
 40
3.0
 41
0.0
 71
     7
 72
     1
  1
72,5
  7
CONVERTER_13
 11
0.9999999999970619
 21
2.424068405545306E-6
 31
0.0
 73
     1
 44
0.60024009603842
  0
ENDBLK
  5
547
330
53F
100
AcDbEntity
  8
0
100
AcDbBlockEnd
  0
BLOCK
  5
551
330
54A
100
AcDbEntity
  8
0
100
AcDbBlockBegin
  2
*D6
 70
     1
 10
0.0
 20
0.0
 30
0.0
  3
*D6
  1

  0
LINE
  5
54B
330
54A
100
AcDbEntity
  8
1
  6
Continuous
 62
     2
100
AcDbLine
 10
122.8814235699861
 20
163.1698015676993
 30
0.0
 11
50.88142356998561
 21
163.1698015676993
 31
0.0
  0
LINE
  5
54C
330
54A
100
AcDbEntity
  8
1
  6
Continuous
 62
     2
100
AcDbLine
 10
50.88142356998561
 20
132.1031159322983
 30
0.0
 11
50.88142356998561
 21
164.1698015676993
 31
0.0
  0
LINE
  5
54D
330
54A
100
AcDbEntity
  8
1
  6
Continuous
 62
     2
100
AcDbLine
 10
122.8814235699861
 20
132.1031159322983
 30
0.0
 11
122.8814235699861
 21
164.1698015676993
 31
0.0
  0
SOLID
  5
54E
330
54A
100
AcDbEntity
  8
1
 62
     2
100
AcDbTrace
 10
119.8814235699861
 20
162.7748440749371
 30
0.0
 11
119.8814235699861
 21
163.5647590604615
 31
0.0
 12
122.8814235699861
 22
163.1698015676993
 32
0.0
 13
122.8814235699861
 23
163.1698015676993
 33
0.0
  0
SOLID
  5
54F
330
54A
100
AcDbEntity
  8
1
 62
     2
100
AcDbTrace
 10
53.88142356998561
 20
163.5647590604615
 30
0.0
 11
53.88142356998561
 21
162.7748440749371
 31
0.0
 12
50.88142356998561
 22
163.1698015676993
 32
0.0
 13
50.88142356998561
 23
163.1698015676993
 33
0.0
  0
MTEXT
  5
550
330
54A
100
AcDbEntity
  8
1
 62
     4
100
AcDbMText
 10
84.63142356998588
 20
165.1698015676993
 30
0.0
 40
3.0
 41
0.0
 71
     7
 72
     1
  1
72
  7
CONVERTER_13
 11
0.9999999999970619
 21
2.424068405545306E-6
 31
0.0
 73
     1
 44
0.60024009603842
  0
ENDBLK
  5
552
330
54A
100
AcDbEntity
  8
0
100
AcDbBlockEnd
  0
BLOCK
  5
55C
330
555
100
AcDbEntity
  8
0
100
AcDbBlockBegin
  2
*D7
 70
     1
 10
0.0
 20
0.0
 30
0.0
  3
*D7
  1

  0
LINE
  5
556
330
555
100
AcDbEntity
  8
1
  6
Continuous
 62
     2
100
AcDbLine
 10
127.8814235699861
 20
38.8563106383094
 30
0.0
 11
45.88142356998561
 21
38.8563106383094
 31
0.0
  0
LINE
  5
557
330
555
100
AcDbEntity
  8
1
  6
Continuous
 62
     2
100
AcDbLine
 10
45.88142356998561
 20
61.10311593229881
 30
0.0
 11
45.88142356998561
 21
37.8563106383094
 31
0.0
  0
LINE
  5
558
330
555
100
AcDbEntity
  8
1
  6
Continuous
 62
     2
100
AcDbLine
 10
127.8814235699861
 20
61.10311593229881
 30
0.0
 11
127.8814235699861
 21
37.8563106383094
 31
0.0
  0
SOLID
  5
559
330
555
100
AcDbEntity
  8
1
 62
     2
100
AcDbTrace
 10
124.8814235699861
 20
38.46135314554721
 30
0.0
 11
124.8814235699861
 21
39.25126813107159
 31
0.0
 12
127.8814235699861
 22
38.8563106383094
 32
0.0
 13
127.8814235699861
 23
38.8563106383094
 33
0.0
  0
SOLID
  5
55A
330
555
100
AcDbEntity
  8
1
 62
     2
100
AcDbTrace
 10
48.88142356998561
 20
39.25126813107159
 30
0.0
 11
48.88142356998561
 21
38.46135314554721
 31
0.0
 12
45.88142356998561
 22
38.8563106383094
 32
0.0
 13
45.88142356998561
 23
38.8563106383094
 33
0.0
  0
MTEXT
  5
55B
330
555
100
AcDbEntity
  8
1
 62
     4
100
AcDbMText
 10
84.48142356998588
 20
40.8563106383094
 30
0.0
 40
3.0
 41
0.0
 71
     7
 72
     1
  1
82
  7
CONVERTER_13
 11
0.9999999999970619
 21
2.424068405545306E-6
 31
0.0
 73
     1
 44
0.60024009603842
  0
ENDBLK
  5
55D
330
555
100
AcDbEntity
  8
0
100
AcDbBlockEnd
  0
BLOCK
  5
567
330
560
100
AcDbEntity
  8
0
100
AcDbBlockBegin
  2
*D8
 70
     1
 10
0.0
 20
0.0
 30
0.0
  3
*D8
  1

  0
LINE
  5
561
330
560
100
AcDbEntity
  8
1
  6
Continuous
 62
     2
100
AcDbLine
 10
121.8814235699861
 20
49.97712684635059
 30
0.0
 11
51.88142356998561
 21
49.97712684635059
 31
0.0
  0
LINE
  5
562
330
560
100
AcDbEntity
  8
1
  6
Continuous
 62
     2
100
AcDbLine
 10
51.88142356998561
 20
58.60311593229879
 30
0.0
 11
51.88142356998561
 21
48.97712684635059
 31
0.0
  0
LINE
  5
563
330
560
100
AcDbEntity
  8
1
  6
Continuous
 62
     2
100
AcDbLine
 10
121.8814235699861
 20
58.60311593229879
 30
0.0
 11
121.8814235699861
 21
48.97712684635059
 31
0.0
  0
SOLID
  5
564
330
560
100
AcDbEntity
  8
1
 62
     2
100
AcDbTrace
 10
118.8814235699861
 20
49.58216935358841
 30
0.0
 11
118.8814235699861
 21
50.37208433911278
 31
0.0
 12
121.8814235699861
 22
49.97712684635059
 32
0.0
 13
121.8814235699861
 23
49.97712684635059
 33
0.0
  0
SOLID
  5
565
330
560
100
AcDbEntity
  8
1
 62
     2
100
AcDbTrace
 10
54.88142356998561
 20
50.37208433911278
 30
0.0
 11
54.88142356998561
 21
49.58216935358841
 31
0.0
 12
51.88142356998561
 22
49.97712684635059
 32
0.0
 13
51.88142356998561
 23
49.97712684635059
 33
0.0
  0
MTEXT
  5
566
330
560
100
AcDbEntity
  8
1
 62
     4
100
AcDbMText
 10
84.63142356998588
 20
51.97712684635059
 30
0.0
 40
3.0
 41
0.0
 71
     7
 72
     1
  1
70
  7
CONVERTER_13
 11
0.9999999999970619
 21
2.424068405545306E-6
 31
0.0
 73
     1
 44
0.60024009603842
  0
ENDBLK
  5
568
330
560
100
AcDbEntity
  8
0
100
AcDbBlockEnd
  0
BLOCK
  5
572
330
56B
100
AcDbEntity
  8
0
100
AcDbBlockBegin
  2
*D9
 70
     1
 10
0.0
 20
0.0
 30
0.0
  3
*D9
  1

  0
LINE
  5
56C
330
56B
100
AcDbEntity
  8
1
  6
Continuous
 62
     2
100
AcDbLine
 10
169.9732098769021
 20
61.60311593229879
 30
0.0
 11
169.9732098769021
 21
134.6031159322993
 31
0.0
  0
LINE
  5
56D
330
56B
100
AcDbEntity
  8
1
  6
Continuous
 62
     2
100
AcDbLine
 10
190.2447674911081
 20
134.6031159322993
 30
0.0
 11
168.9732098769021
 21
134.6031159322993
 31
0.0
  0
LINE
  5
56E
330
56B
100
AcDbEntity
  8
1
  6
Continuous
 62
     2
100
AcDbLine
 10
183.7947674911021
 20
61.60311593229879
 30
0.0
 11
168.9732098769021
 21
61.60311593229879
 31
0.0
  0
SOLID
  5
56F
330
56B
100
AcDbEntity
  8
1
 62
     2
100
AcDbTrace
 10
169.5782523841399
 20
64.60311593229879
 30
0.0
 11
170.3681673696643
 21
64.60311593229879
 31
0.0
 12
169.9732098769021
 22
61.60311593229879
 32
0.0
 13
169.9732098769021
 23
61.60311593229879
 33
0.0
  0
SOLID
  5
570
330
56B
100
AcDbEntity
  8
1
 62
     2
100
AcDbTrace
 10
170.3681673696643
 20
131.6031159322993
 30
0.0
 11
169.5782523841399
 21
131.6031159322993
 31
0.0
 12
169.9732098769021
 22
134.6031159322993
 32
0.0
 13
169.9732098769021
 23
134.6031159322993
 33
0.0
  0
MTEXT
  5
571
330
56B
100
AcDbEntity
  8
1
 62
     4
100
AcDbMText
 10
167.9732098769021
 20
95.85311593229903
 30
0.0
 40
3.0
 41
0.0
 71
     7
 72
     1
  1
73
  7
CONVERTER_13
 11
0.0
 21
1.0
 31
0.0
 73
     1
 44
0.60024009603842
  0
ENDBLK
  5
573
330
56B
100
AcDbEntity
  8
0
100
AcDbBlockEnd
  0
BLOCK
  5
57D
330
576
100
AcDbEntity
  8
0
100
AcDbBlockBegin
  2
*D10
 70
     1
 10
0.0
 20
0.0
 30
0.0
  3
*D10
  1

  0
LINE
  5
577
330
576
100
AcDbEntity
  8
1
  6
Continuous
 62
     2
100
AcDbLine
 10
141.614370897428
 20
94.38311593229929
 30
0.0
 11
141.614370897428
 21
67.60311593229879
 31
0.0
  0
LINE
  5
578
330
576
100
AcDbEntity
  8
1
  6
Continuous
 62
     2
100
AcDbLine
 10
128.3814235699861
 20
67.60311593229879
 30
0.0
 11
142.614370897428
 21
67.60311593229879
 31
0.0
  0
LINE
  5
579
330
576
100
AcDbEntity
  8
1
  6
Continuous
 62
     2
100
AcDbLine
 10
128.6814235699861
 20
94.38311593229929
 30
0.0
 11
142.614370897428
 21
94.38311593229929
 31
0.0
  0
SOLID
  5
57A
330
576
100
AcDbEntity
  8
1
 62
     2
100
AcDbTrace
 10
142.0093283901902
 20
91.38311593229929
 30
0.0
 11
141.2194134046658
 21
91.38311593229929
 31
0.0
 12
141.614370897428
 22
94.38311593229929
 32
0.0
 13
141.614370897428
 23
94.38311593229929
 33
0.0
  0
SOLID
  5
57B
330
576
100
AcDbEntity
  8
1
 62
     2
100
AcDbTrace
 10
141.2194134046658
 20
70.60311593229879
 30
0.0
 11
142.0093283901902
 21
70.60311593229879
 31
0.0
 12
141.614370897428
 22
67.60311593229879
 32
0.0
 13
141.614370897428
 23
67.60311593229879
 33
0.0
  0
MTEXT
  5
57C
330
576
100
AcDbEntity
  8
1
 62
     4
100
AcDbMText
 10
139.614370897428
 20
76.34311593229904
 30
0.0
 40
3.0
 41
0.0
 71
     7
 72
     1
  1
PG21
  7
CONVERTER_13
 11
0.0
 21
1.0
 31
0.0
 73
     1
 44
0.60024009603842
  0
ENDBLK
  5
57E
330
576
100
AcDbEntity
  8
0
100
AcDbBlockEnd
  0
BLOCK
  5
588
330
581
100
AcDbEntity
  8
0
100
AcDbBlockBegin
  2
*D11
 70
     1
 10
0.0
 20
0.0
 30
0.0
  3
*D11
  1

  0
LINE
  5
582
330
581
100
AcDbEntity
  8
1
  6
Continuous
 62
     2
100
AcDbLine
 10
34.029405545526
 20
152.6031159322993
 30
0.0
 11
34.029405545526
 21
61.60311593229876
 31
0.0
  0
LINE
  5
583
330
581
100
AcDbEntity
  8
1
  6
Continuous
 62
     2
100
AcDbLine
 10
45.3814235699856
 20
61.60311593229876
 30
0.0
 11
33.029405545526
 21
61.60311593229876
 31
0.0
  0
LINE
  5
584
330
581
100
AcDbEntity
  8
1
  6
Continuous
 62
     2
100
AcDbLine
 10
54.3814235699856
 20
152.6031159322993
 30
0.0
 11
33.029405545526
 21
152.6031159322993
 31
0.0
  0
SOLID
  5
585
330
581
100
AcDbEntity
  8
1
 62
     2
100
AcDbTrace
 10
34.42436303828819
 20
149.6031159322993
 30
0.0
 11
33.63444805276382
 21
149.6031159322993
 31
0.0
 12
34.029405545526
 22
152.6031159322993
 32
0.0
 13
34.029405545526
 23
152.6031159322993
 33
0.0
  0
SOLID
  5
586
330
581
100
AcDbEntity
  8
1
 62
     2
100
AcDbTrace
 10
33.63444805276382
 20
64.60311593229876
 30
0.0
 11
34.42436303828819
 21
64.60311593229876
 31
0.0
 12
34.029405545526
 22
61.60311593229876
 32
0.0
 13
34.029405545526
 23
61.60311593229876
 33
0.0
  0
MTEXT
  5
587
330
581
100
AcDbEntity
  8
1
 62
     4
100
AcDbMText
 10
32.029405545526
 20
105.303115932299
 30
0.0
 40
3.0
 41
0.0
 71
     7
 72
     1
  1
91
  7
CONVERTER_13
 11
0.0
 21
1.0
 31
0.0
 73
     1
 44
0.60024009603842
  0
ENDBLK
  5
589
330
581
100
AcDbEntity
  8
0
100
AcDbBlockEnd
  0
ENDSEC
  0
SECTION
  2
ENTITIES
  0
INSERT
  5
50
330
1F
100
AcDbEntity
  8
1
100
AcDbBlockReference
  2
_formato_A4
 10
296.9999999999999
 20
0.0
 30
0.0
  0
POINT
  5
A0
330
1F
100
AcDbEntity
  8
Bemaßungen_TC_020513_DIN_
 62
     7
100
AcDbPoint
 10
190.2947674911041
 20
59.10311593229869
 30
0.0
  0
POINT
  5
A1
330
1F
100
AcDbEntity
  8
Bemaßungen_TC_020513_DIN_
 62
     7
100
AcDbPoint
 10
121.8814235699861
 20
59.10311593229879
 30
0.0
  0
POINT
  5
A2
330
1F
100
AcDbEntity
  8
Bemaßungen_TC_020513_DIN_
 62
     7
100
AcDbPoint
 10
258.7287174628252
 20
116.6031159322983
 30
0.0
  0
POINT
  5
A3
330
1F
100
AcDbEntity
  8
Bemaßungen_TC_020513_DIN_
 62
     7
100
AcDbPoint
 10
184.2947674911021
 20
63.60311593229879
 30
0.0
  0
POINT
  5
A4
330
1F
100
AcDbEntity
  8
Bemaßungen_TC_020513_DIN_
 62
     7
100
AcDbPoint
 10
196.5447674911061
 20
134.6031159322993
 30
0.0
  0
POINT
  5
A5
330
1F
100
AcDbEntity
  8
Bemaßungen_TC_020513_DIN_
 62
     7
100
AcDbPoint
 10
184.2947674911021
 20
61.60311593229879
 30
0.0
  0
POINT
  5
A6
330
1F
100
AcDbEntity
  8
Bemaßungen_TC_020513_DIN_
 62
     7
100
AcDbPoint
 10
241.2947674911021
 20
61.60311593229879
 30
0.0
  0
POINT
  5
A7
330
1F
100
AcDbEntity
  8
Bemaßungen_TC_020513_DIN_
 62
     7
100
AcDbPoint
 10
241.2947674911021
 20
65.60311593229869
 30
0.0
  0
POINT
  5
A8
330
1F
100
AcDbEntity
  8
Bemaßungen_TC_020513_DIN_
 62
     7
100
AcDbPoint
 10
241.2947674911021
 20
63.60311593229879
 30
0.0
  0
POINT
  5
A9
330
1F
100
AcDbEntity
  8
Bemaßungen_TC_020513_DIN_
 62
     7
100
AcDbPoint
 10
184.2947674911021
 20
63.60311593229879
 30
0.0
  0
POINT
  5
AA
330
1F
100
AcDbEntity
  8
Bemaßungen_TC_020513_DIN_
 62
     7
100
AcDbPoint
 10
235.2947674911041
 20
59.10311593229869
 30
0.0
  0
POINT
  5
AB
330
1F
100
AcDbEntity
  8
Bemaßungen_TC_020513_DIN_
 62
     7
100
AcDbPoint
 10
54.8814235699856
 20
61.60311593229879
 30
0.0
  0
POINT
  5
AC
330
1F
100
AcDbEntity
  8
Bemaßungen_TC_020513_DIN_
 62
     7
100
AcDbPoint
 10
54.8814235699856
 20
152.6031159322993
 30
0.0
  0
POINT
  5
AD
330
1F
100
AcDbEntity
  8
Bemaßungen_TC_020513_DIN_
 62
     7
100
AcDbPoint
 10
50.8814235699856
 20
127.6031159322983
 30
0.0
  0
POINT
  5
AE
330
1F
100
AcDbEntity
  8
Bemaßungen_TC_020513_DIN_
 62
     7
100
AcDbPoint
 10
122.8814235699861
 20
127.6031159322983
 30
0.0
  0
POINT
  5
AF
330
1F
100
AcDbEntity
  8
Bemaßungen_TC_020513_DIN_
 62
     7
100
AcDbPoint
 10
127.8814235699861
 20
63.60311593229879
 30
0.0
  0
POINT
  5
B0
330
1F
100
AcDbEntity
  8
Bemaßungen_TC_020513_DIN_
 62
     7
100
AcDbPoint
 10
45.8814235699856
 20
63.60311593229879
 30
0.0
  0
POINT
  5
B1
330
1F
100
AcDbEntity
  8
Bemaßungen_TC_020513_DIN_
 62
     7
100
AcDbPoint
 10
51.8814235699856
 20
59.10311593229879
 30
0.0
  0
POINT
  5
B2
330
1F
100
AcDbEntity
  8
Bemaßungen_TC_020513_DIN_
 62
     7
100
AcDbPoint
 10
127.8814235699861
 20
67.60311593229879
 30
0.0
  0
POINT
  5
B3
330
1F
100
AcDbEntity
  8
Bemaßungen_TC_020513_DIN_
 62
     7
100
AcDbPoint
 10
127.8814235699861
 20
94.38311593229929
 30
0.0
  0
LWPOLYLINE
  5
B4
330
1F
100
AcDbEntity
  8
Mittellinie_TC_020513_DIN_
  6
CHAIN
 62
     7
100
AcDbPolyline
 90
        2
 70
     0
 43
0.25
 10
190.2947674911041
 20
59.10311593229869
 10
190.2947674911041
 20
68.10311593229869
  0
LINE
  5
B5
330
1F
100
AcDbEntity
  8
1
  6
Continuous
 62
     2
100
AcDbLine
 10
258.7287174628252
 20
116.6031159322983
 30
0.0
 11
258.7287174628252
 21
117.9031159322983
 31
0.0
  0
LWPOLYLINE
  5
B6
330
1F
100
AcDbEntity
  8
Mittellinie_TC_020513_DIN_
  6
CHAIN
 62
     7
100
AcDbPolyline
 90
        2
 70
     0
 43
0.25
 10
121.8814235699861
 20
59.10311593229879
 10
121.8814235699861
 20
68.10311593229879
  0
LWPOLYLINE
  5
B7
330
1F
100
AcDbEntity
  8
Sichtbare_Kanten_TC_020513_DIN_
  6
Continuous
 62
     7
100
AcDbPolyline
 90
        2
 70
     0
 43
0.5
 10
127.8814235699861
 20
67.60311593229879
 10
127.8814235699861
 20
65.60311593229869
  0
LINE
  5
B8
330
1F
100
AcDbEntity
  8
1
  6
Continuous
 62
     2
100
AcDbLine
 10
127.8814235699861
 20
67.60311593229879
 30
0.0
 11
128.1814235699861
 21
67.60311593229879
 31
0.0
  0
LWPOLYLINE
  5
B9
330
1F
100
AcDbEntity
  8
Sichtbare_Kanten_TC_020513_DIN_
  6
Continuous
 62
     7
100
AcDbPolyline
 90
        2
 70
     0
 43
0.5
 10
127.8814235699861
 20
94.38311593229929
 10
127.8814235699861
 20
96.1331159322983
  0
LINE
  5
BA
330
1F
100
AcDbEntity
  8
1
  6
Continuous
 62
     2
100
AcDbLine
 10
127.8814235699861
 20
94.38311593229929
 30
0.0
 11
128.1814235699861
 21
94.38311593229929
 31
0.0
  0
LWPOLYLINE
  5
373
330
1F
100
AcDbEntity
  8
Mittellinie_TC_020513_DIN_
  6
CHAIN
 62
     7
100
AcDbPolyline
 90
        2
 70
     0
 43
0.25
 10
86.88142356998554
 20
59.2796321828164
 10
86.88142356998554
 20
148.9317811304063
  0
LWPOLYLINE
  5
374
330
1F
100
AcDbEntity
  8
Mittelpunktmarkierung_TC_020513_DIN_
  6
CHAIN
 62
     7
100
AcDbPolyline
 90
        2
 70
     0
 43
0.25
 10
212.7947674911021
 20
96.88311593229929
 10
212.7947674911021
 20
65.10311593229869
  0
LWPOLYLINE
  5
375
330
1F
100
AcDbEntity
  8
Mittelpunktmarkierung_TC_020513_DIN_
  6
CHAIN
 62
     7
100
AcDbPolyline
 90
        2
 70
     0
 43
0.25
 10
228.684767491102
 20
80.99311593229879
 10
196.9047674911021
 20
80.99311593229879
  0
LWPOLYLINE
  5
376
330
1F
100
AcDbEntity
  8
Mittelpunktmarkierung_TC_020513_DIN_
  6
CHAIN
 62
     7
100
AcDbPolyline
 90
        2
 70
     0
 43
0.25
 10
209.7947674911041
 20
120.8531159322993
 10
209.7947674911041
 20
112.3531159322983
  0
LWPOLYLINE
  5
377
330
1F
100
AcDbEntity
  8
Mittelpunktmarkierung_TC_020513_DIN_
  6
CHAIN
 62
     7
100
AcDbPolyline
 90
        2
 70
     0
 43
0.25
 10
214.0447674911041
 20
116.6031159322983
 10
205.5447674911041
 20
116.6031159322983
  0
LWPOLYLINE
  5
378
330
1F
100
AcDbEntity
  8
Mittelpunktmarkierung_TC_020513_DIN_
  6
CHAIN
 62
     7
100
AcDbPolyline
 90
        2
 70
     0
 43
0.25
 10
212.7947674911041
 20
134.8031159322983
 10
212.7947674911041
 20
120.4031159322983
  0
LWPOLYLINE
  5
379
330
1F
100
AcDbEntity
  8
Mittelpunktmarkierung_TC_020513_DIN_
  6
CHAIN
 62
     7
100
AcDbPolyline
 90
        2
 70
     0
 43
0.25
 10
219.994767491104
 20
127.6031159322983
 10
205.5947674911041
 20
127.6031159322983
  0
LWPOLYLINE
  5
37A
330
1F
100
AcDbEntity
  8
Mittellinie_TC_020513_DIN_
  6
CHAIN
 62
     7
100
AcDbPolyline
 90
        2
 70
     0
 43
0.25
 10
235.2947674911041
 20
59.10311593229869
 10
235.2947674911041
 20
68.10311593229869
  0
LWPOLYLINE
  5
37B
330
1F
100
AcDbEntity
  8
Mittellinie_TC_020513_DIN_
  6
CHAIN
 62
     7
100
AcDbPolyline
 90
        2
 70
     0
 43
0.25
 10
51.8814235699856
 20
59.10311593229879
 10
51.8814235699856
 20
68.10311593229879
  0
LWPOLYLINE
  5
37C
330
1F
100
AcDbEntity
  8
Mittellinie_TC_020513_DIN_
  6
CHAIN
 62
     7
100
AcDbPolyline
 90
        2
 70
     0
 43
0.25
 10
112.3814235699861
 20
80.99311593229879
 10
130.3814235699861
 20
80.99311593229879
  0
LWPOLYLINE
  5
37D
330
1F
100
AcDbEntity
  8
Mittellinie_TC_020513_DIN_
  6
CHAIN
 62
     7
100
AcDbPolyline
 90
        2
 70
     0
 43
0.25
 10
43.3814235699856
 20
80.99311593229879
 10
61.38142356998554
 20
80.99311593229879
  0
LWPOLYLINE
  5
37E
330
1F
100
AcDbEntity
  8
Sichtbare_Kanten_TC_020513_DIN_
  6
Continuous
 62
     7
100
AcDbPolyline
 90
        2
 70
     0
 43
0.5
 10
243.5947674911041
 20
118.1864786297083
 10
243.5947674911061
 20
115.3864786297083
  0
LWPOLYLINE
  5
37F
330
1F
100
AcDbEntity
  8
Sichtbare_Kanten_TC_020513_DIN_
  6
Continuous
 62
     7
100
AcDbPolyline
 90
        2
 70
     0
 43
0.5
 10
236.594767491108
 20
115.3864786297083
 10
236.5947674911041
 20
118.1864786297083
  0
LWPOLYLINE
  5
380
330
1F
100
AcDbEntity
  8
Sichtbare_Kanten_TC_020513_DIN_
  6
Continuous
 62
     7
100
AcDbPolyline
 90
        2
 70
     0
 43
0.5
 10
243.5947674911061
 20
115.3864786297083
 10
236.594767491108
 20
115.3864786297083
  0
LWPOLYLINE
  5
381
330
1F
100
AcDbEntity
  8
Sichtbare_Kanten_TC_020513_DIN_
  6
Continuous
 62
     7
100
AcDbPolyline
 90
        2
 70
     0
 43
0.5
 10
236.5947674911041
 20
120.6031159322983
 10
236.5947674911041
 20
118.1864786297083
  0
LWPOLYLINE
  5
382
330
1F
100
AcDbEntity
  8
Sichtbare_Kanten_TC_020513_DIN_
  6
Continuous
 62
     7
100
AcDbPolyline
 90
        2
 70
     0
 43
0.5
 10
224.7947674911041
 20
121.6031159322983
 10
235.5947674911041
 20
121.6031159322983
  0
LWPOLYLINE
  5
383
330
1F
100
AcDbEntity
  8
Sichtbare_Kanten_TC_020513_DIN_
  6
Continuous
 62
     7
100
AcDbPolyline
 90
        2
 70
     0
 43
0.5
 10
205.7947674911041
 20
127.6031159322983
 10
205.7947674911041
 20
114.1031159322993
  0
LWPOLYLINE
  5
384
330
1F
100
AcDbEntity
  8
Sichtbare_Kanten_TC_020513_DIN_
  6
Continuous
 62
     7
100
AcDbPolyline
 90
        2
 70
     0
 43
0.5
 10
235.5947674911041
 20
128.6031159322983
 10
222.7947674911041
 20
128.6031159322983
  0
LWPOLYLINE
  5
385
330
1F
100
AcDbEntity
  8
Sichtbare_Kanten_TC_020513_DIN_
  6
Continuous
 62
     7
100
AcDbPolyline
 90
        2
 70
     0
 43
0.5
 10
243.5947674911041
 20
118.1864786297083
 10
243.5947674911041
 20
120.6031159322983
  0
LWPOLYLINE
  5
386
330
1F
100
AcDbEntity
  8
Sichtbare_Kanten_TC_020513_DIN_
  6
Continuous
 62
     7
100
AcDbPolyline
 90
        2
 70
     0
 43
0.5
 10
243.983656379996
 20
116.7864786297083
 10
247.094767491108
 20
116.7864786297083
  0
LWPOLYLINE
  5
387
330
1F
100
AcDbEntity
  8
Sichtbare_Kanten_TC_020513_DIN_
  6
Continuous
 62
     7
100
AcDbPolyline
 90
        2
 70
     0
 43
0.5
 10
243.983656379996
 20
116.7864786297083
 10
243.5947674911061
 20
116.7864786297083
  0
LWPOLYLINE
  5
388
330
1F
100
AcDbEntity
  8
Sichtbare_Kanten_TC_020513_DIN_
  6
Continuous
 62
     7
100
AcDbPolyline
 90
        2
 70
     0
 43
0.5
 10
236.594767491108
 20
116.7864786297083
 10
236.5571125761011
 20
116.7864786297083
  0
LWPOLYLINE
  5
389
330
1F
100
AcDbEntity
  8
Sichtbare_Kanten_TC_020513_DIN_
  6
Continuous
 62
     7
100
AcDbPolyline
 90
        2
 70
     0
 43
0.5
 10
236.4571125761011
 20
115.2864786297083
 10
236.4571125761011
 20
114.4488237147003
  0
LWPOLYLINE
  5
38A
330
1F
100
AcDbEntity
  8
Sichtbare_Kanten_TC_020513_DIN_
  6
Continuous
 62
     7
100
AcDbPolyline
 90
        2
 70
     0
 43
0.5
 10
235.0571125761011
 20
115.2864786297083
 10
235.0571125761011
 20
114.4488237147003
  0
LWPOLYLINE
  5
38B
330
1F
100
AcDbEntity
  8
Sichtbare_Kanten_TC_020513_DIN_
  6
Continuous
 62
     7
100
AcDbPolyline
 90
        2
 70
     0
 43
0.5
 10
236.4571125761011
 20
114.4488237147003
 10
235.0571125761011
 20
114.4488237147003
  0
LWPOLYLINE
  5
38C
330
1F
100
AcDbEntity
  8
Sichtbare_Kanten_TC_020513_DIN_
  6
Continuous
 62
     7
100
AcDbPolyline
 90
        2
 70
     0
 43
0.5
 10
247.094767491108
 20
115.3864786297083
 10
247.094767491108
 20
116.7864786297083
  0
LWPOLYLINE
  5
38D
330
1F
100
AcDbEntity
  8
Sichtbare_Kanten_TC_020513_DIN_
  6
Continuous
 62
     7
100
AcDbPolyline
 90
        2
 70
     0
 43
0.5
 10
236.594767491108
 20
115.3864786297083
 10
236.5571125761011
 20
115.3864786297083
  0
LWPOLYLINE
  5
38E
330
1F
100
AcDbEntity
  8
Sichtbare_Kanten_TC_020513_DIN_
  6
Continuous
 62
     7
100
AcDbPolyline
 90
        2
 70
     0
 43
0.5
 10
243.983656379996
 20
115.3864786297083
 10
243.5947674911061
 20
115.3864786297083
  0
LWPOLYLINE
  5
38F
330
1F
100
AcDbEntity
  8
Sichtbare_Kanten_TC_020513_DIN_
  6
Continuous
 62
     7
100
AcDbPolyline
 90
        2
 70
     0
 43
0.5
 10
243.983656379996
 20
115.3864786297083
 10
247.094767491108
 20
115.3864786297083
  0
LWPOLYLINE
  5
390
330
1F
100
AcDbEntity
  8
Sichtbare_Kanten_TC_020513_DIN_
  6
Continuous
 62
     7
100
AcDbPolyline
 90
        2
 70
     0
 43
0.5
 10
229.044767491106
 20
130.6031159322993
 10
235.0447674911071
 20
130.6031159322993
  0
LWPOLYLINE
  5
391
330
1F
100
AcDbEntity
  8
Sichtbare_Kanten_TC_020513_DIN_
  6
Continuous
 62
     7
100
AcDbPolyline
 90
        2
 70
     0
 43
0.5
 10
235.0447674911071
 20
128.6031159322983
 10
235.0447674911071
 20
130.6031159322993
  0
LWPOLYLINE
  5
392
330
1F
100
AcDbEntity
  8
Sichtbare_Kanten_TC_020513_DIN_
  6
Continuous
 62
     7
100
AcDbPolyline
 90
        2
 70
     0
 43
0.5
 10
235.0447674911071
 20
65.60311593229869
 10
235.0447674911071
 20
121.6031159322993
  0
LWPOLYLINE
  5
393
330
1F
100
AcDbEntity
  8
Sichtbare_Kanten_TC_020513_DIN_
  6
Continuous
 62
     7
100
AcDbPolyline
 90
        2
 70
     0
 43
0.5
 10
206.4702121707691
 20
130.6031159322993
 10
196.5447674911061
 20
130.6031159322983
  0
LWPOLYLINE
  5
394
330
1F
100
AcDbEntity
  8
Sichtbare_Kanten_TC_020513_DIN_
  6
Continuous
 62
     7
100
AcDbPolyline
 90
        2
 70
     0
 43
0.5
 10
229.044767491106
 20
130.6031159322993
 10
222.1791006831001
 20
130.6031159322993
  0
LWPOLYLINE
  5
395
330
1F
100
AcDbEntity
  8
Sichtbare_Kanten_TC_020513_DIN_
  6
Continuous
 62
     7
100
AcDbPolyline
 90
        2
 70
     0
 43
0.5
 10
190.5447674911071
 20
65.60311593229869
 10
190.5447674911071
 20
130.6031159322983
  0
LWPOLYLINE
  5
396
330
1F
100
AcDbEntity
  8
Sichtbare_Kanten_TC_020513_DIN_
  6
Continuous
 62
     7
100
AcDbPolyline
 90
        2
 70
     0
 43
0.5
 10
190.5447674911071
 20
130.6031159322983
 10
196.5447674911061
 20
130.6031159322983
  0
LWPOLYLINE
  5
397
330
1F
100
AcDbEntity
  8
Sichtbare_Kanten_TC_020513_DIN_
  6
Continuous
 62
     7
100
AcDbPolyline
 90
        2
 70
     0
 43
0.5
 10
234.844767491108
 20
134.6031159322993
 10
229.044767491106
 20
134.6031159322993
  0
LWPOLYLINE
  5
398
330
1F
100
AcDbEntity
  8
Sichtbare_Kanten_TC_020513_DIN_
  6
Continuous
 62
     7
100
AcDbPolyline
 90
        2
 70
     0
 43
0.5
 10
234.844767491108
 20
134.6031159322993
 10
234.844767491108
 20
130.6031159322993
  0
LWPOLYLINE
  5
399
330
1F
100
AcDbEntity
  8
Sichtbare_Kanten_TC_020513_DIN_
  6
Continuous
 62
     7
100
AcDbPolyline
 90
        2
 70
     0
 43
0.5
 10
226.931934453285
 20
134.6031159322993
 10
229.044767491106
 20
134.6031159322993
  0
LWPOLYLINE
  5
39A
330
1F
100
AcDbEntity
  8
Sichtbare_Kanten_TC_020513_DIN_
  6
Continuous
 62
     7
100
AcDbPolyline
 90
        2
 70
     0
 43
0.5
 10
196.5447674911061
 20
134.6031159322993
 10
215.794767491106
 20
134.6031159322993
  0
LWPOLYLINE
  5
39B
330
1F
100
AcDbEntity
  8
Sichtbare_Kanten_TC_020513_DIN_
  6
Continuous
 62
     7
100
AcDbPolyline
 90
        2
 70
     0
 43
0.5
 10
196.5447674911061
 20
134.6031159322993
 10
190.7447674911081
 20
134.6031159322993
  0
LWPOLYLINE
  5
39C
330
1F
100
AcDbEntity
  8
Sichtbare_Kanten_TC_020513_DIN_
  6
Continuous
 62
     7
100
AcDbPolyline
 90
        2
 70
     0
 43
0.5
 10
190.7447674911081
 20
134.6031159322993
 10
190.7447674911081
 20
130.6031159322993
  0
LWPOLYLINE
  5
39D
330
1F
100
AcDbEntity
  8
Sichtbare_Kanten_TC_020513_DIN_
  6
Continuous
 62
     7
100
AcDbPolyline
 90
        2
 70
     0
 43
0.5
 10
241.2947674911021
 20
61.60311593229879
 10
241.2947674911021
 20
65.60311593229869
  0
LWPOLYLINE
  5
39E
330
1F
100
AcDbEntity
  8
Sichtbare_Kanten_TC_020513_DIN_
  6
Continuous
 62
     7
100
AcDbPolyline
 90
        2
 70
     0
 43
0.5
 10
184.2947674911021
 20
61.60311593229879
 10
184.2947674911021
 20
65.60311593229869
  0
LWPOLYLINE
  5
39F
330
1F
100
AcDbEntity
  8
Sichtbare_Kanten_TC_020513_DIN_
  6
Continuous
 62
     7
100
AcDbPolyline
 90
        2
 70
     0
 43
0.5
 10
241.2947674911021
 20
65.60311593229869
 10
227.934767491102
 20
65.60311593229869
  0
LWPOLYLINE
  5
3A0
330
1F
100
AcDbEntity
  8
Sichtbare_Kanten_TC_020513_DIN_
  6
Continuous
 62
     7
100
AcDbPolyline
 90
        2
 70
     0
 43
0.5
 10
197.6547674911021
 20
65.60311593229869
 10
184.2947674911021
 20
65.60311593229869
  0
LWPOLYLINE
  5
3A1
330
1F
100
AcDbEntity
  8
Sichtbare_Kanten_TC_020513_DIN_
  6
Continuous
 62
     7
100
AcDbPolyline
 90
        2
 70
     0
 43
0.5
 10
241.2947674911021
 20
61.60311593229879
 10
184.2947674911021
 20
61.60311593229879
  0
LWPOLYLINE
  5
3A2
330
1F
100
AcDbEntity
  8
Sichtbare_Kanten_TC_020513_DIN_
  6
Continuous
 62
     7
100
AcDbPolyline
 90
        2
 70
     0
 43
0.5
 10
197.6547674911021
 20
65.60311593229869
 10
197.6547674911021
 20
80.99311593229879
  0
LWPOLYLINE
  5
3A3
330
1F
100
AcDbEntity
  8
Sichtbare_Kanten_TC_020513_DIN_
  6
Continuous
 62
     7
100
AcDbPolyline
 90
        2
 70
     0
 43
0.5
 10
227.934767491102
 20
80.99311593229879
 10
227.934767491102
 20
65.60311593229869
  0
LWPOLYLINE
  5
3A4
330
1F
100
AcDbEntity
  8
Sichtbare_Kanten_TC_020513_DIN_
  6
Continuous
 62
     7
100
AcDbPolyline
 90
        2
 70
     0
 43
0.5
 10
242.3614047937001
 20
146.1807385698843
 10
242.3614047937001
 20
145.3967397001663
  0
LWPOLYLINE
  5
3A5
330
1F
100
AcDbEntity
  8
Sichtbare_Kanten_TC_020513_DIN_
  6
Continuous
 62
     7
100
AcDbPolyline
 90
        2
 70
     0
 43
0.5
 10
242.3614047937001
 20
145.3967397001663
 10
242.3614047937001
 20
144.7807385698843
  0
LWPOLYLINE
  5
3A6
330
1F
100
AcDbEntity
  8
Sichtbare_Kanten_TC_020513_DIN_
  6
Continuous
 62
     7
100
AcDbPolyline
 90
        2
 70
     0
 43
0.5
 10
211.1947674911041
 20
117.3654610172913
 10
211.1947674911051
 20
117.4654610172913
  0
LWPOLYLINE
  5
3A7
330
1F
100
AcDbEntity
  8
Sichtbare_Kanten_TC_020513_DIN_
  6
Continuous
 62
     7
100
AcDbPolyline
 90
        2
 70
     0
 43
0.5
 10
208.2947674911051
 20
117.4654610172913
 10
208.2947674911041
 20
117.3654610172913
  0
LWPOLYLINE
  5
3A8
330
1F
100
AcDbEntity
  8
Sichtbare_Kanten_TC_020513_DIN_
  6
Continuous
 62
     7
100
AcDbPolyline
 90
        2
 70
     0
 43
0.5
 10
239.5614047937001
 20
133.4039242387963
 10
240.3454009407631
 20
133.4039242387963
  0
LWPOLYLINE
  5
3A9
330
1F
100
AcDbEntity
  8
Sichtbare_Kanten_TC_020513_DIN_
  6
Continuous
 62
     7
100
AcDbPolyline
 90
        2
 70
     0
 43
0.5
 10
240.3454009407631
 20
133.4039242387963
 10
240.9614047937001
 20
133.4039242387963
  0
LWPOLYLINE
  5
3AA
330
1F
100
AcDbEntity
  8
Sichtbare_Kanten_TC_020513_DIN_
  6
Continuous
 62
     7
100
AcDbPolyline
 90
        2
 70
     0
 43
0.5
 10
241.0925738918481
 20
132.8122586723593
 10
240.5342848030901
 20
132.5519241948073
  0
LWPOLYLINE
  5
3AB
330
1F
100
AcDbEntity
  8
Sichtbare_Kanten_TC_020513_DIN_
  6
Continuous
 62
     7
100
AcDbPolyline
 90
        2
 70
     0
 43
0.5
 10
240.5342848030901
 20
132.5519241948073
 10
239.823742989997
 20
132.2205931059223
  0
LWPOLYLINE
  5
3AC
330
1F
100
AcDbEntity
  8
Sichtbare_Kanten_TC_020513_DIN_
  6
Continuous
 62
     7
100
AcDbPolyline
 90
        2
 70
     0
 43
0.5
 10
243.6611695524961
 20
127.3038875021103
 10
241.0925738918481
 20
132.8122586723593
  0
LWPOLYLINE
  5
3AD
330
1F
100
AcDbEntity
  8
Sichtbare_Kanten_TC_020513_DIN_
  6
Continuous
 62
     7
100
AcDbPolyline
 90
        2
 70
     0
 43
0.5
 10
239.823742989997
 20
132.2205931059223
 10
242.3923386506451
 20
126.7122219356733
  0
LWPOLYLINE
  5
3AE
330
1F
100
AcDbEntity
  8
Sichtbare_Kanten_TC_020513_DIN_
  6
Continuous
 62
     7
100
AcDbPolyline
 90
        2
 70
     0
 43
0.5
 10
243.6611695524961
 20
127.3038875021103
 10
244.2876427660851
 20
125.9604113600563
  0
LWPOLYLINE
  5
3AF
330
1F
100
AcDbEntity
  8
Sichtbare_Kanten_TC_020513_DIN_
  6
Continuous
 62
     7
100
AcDbPolyline
 90
        2
 70
     0
 43
0.5
 10
244.2876427660851
 20
125.9604113600563
 10
243.018811864234
 20
125.3687457936193
  0
LWPOLYLINE
  5
3B0
330
1F
100
AcDbEntity
  8
Sichtbare_Kanten_TC_020513_DIN_
  6
Continuous
 62
     7
100
AcDbPolyline
 90
        2
 70
     0
 43
0.5
 10
243.018811864234
 20
125.3687457936193
 10
242.3923386506451
 20
126.7122219356733
  0
LWPOLYLINE
  5
3B1
330
1F
100
AcDbEntity
  8
Sichtbare_Kanten_TC_020513_DIN_
  6
Continuous
 62
     7
100
AcDbPolyline
 90
        2
 70
     0
 43
0.5
 10
208.2947674911041
 20
117.3654610172913
 10
208.2947674911041
 20
115.9654610172913
  0
LWPOLYLINE
  5
3B2
330
1F
100
AcDbEntity
  8
Sichtbare_Kanten_TC_020513_DIN_
  6
Continuous
 62
     7
100
AcDbPolyline
 90
        2
 70
     0
 43
0.5
 10
208.2947674911041
 20
117.3654610172913
 10
208.7947674911041
 20
117.3654610172913
  0
LWPOLYLINE
  5
3B3
330
1F
100
AcDbEntity
  8
Sichtbare_Kanten_TC_020513_DIN_
  6
Continuous
 62
     7
100
AcDbPolyline
 90
        2
 70
     0
 43
0.5
 10
208.7947674911041
 20
115.9654610172913
 10
208.2947674911041
 20
115.9654610172913
  0
LWPOLYLINE
  5
3B4
330
1F
100
AcDbEntity
  8
Sichtbare_Kanten_TC_020513_DIN_
  6
Continuous
 62
     7
100
AcDbPolyline
 90
        2
 70
     0
 43
0.5
 10
210.6947674911041
 20
117.3654610172913
 10
208.7947674911041
 20
117.3654610172913
  0
LWPOLYLINE
  5
3B5
330
1F
100
AcDbEntity
  8
Sichtbare_Kanten_TC_020513_DIN_
  6
Continuous
 62
     7
100
AcDbPolyline
 90
        2
 70
     0
 43
0.5
 10
208.7947674911041
 20
115.9654610172913
 10
210.6947674911041
 20
115.9654610172913
  0
LWPOLYLINE
  5
3B6
330
1F
100
AcDbEntity
  8
Sichtbare_Kanten_TC_020513_DIN_
  6
Continuous
 62
     7
100
AcDbPolyline
 90
        2
 70
     0
 43
0.5
 10
210.6947674911041
 20
117.3654610172913
 10
211.1947674911041
 20
117.3654610172913
  0
LWPOLYLINE
  5
3B7
330
1F
100
AcDbEntity
  8
Sichtbare_Kanten_TC_020513_DIN_
  6
Continuous
 62
     7
100
AcDbPolyline
 90
        2
 70
     0
 43
0.5
 10
211.1947674911041
 20
115.9654610172913
 10
210.6947674911041
 20
115.9654610172913
  0
LWPOLYLINE
  5
3B8
330
1F
100
AcDbEntity
  8
Sichtbare_Kanten_TC_020513_DIN_
  6
Continuous
 62
     7
100
AcDbPolyline
 90
        2
 70
     0
 43
0.5
 10
211.1947674911041
 20
117.3654610172913
 10
211.1947674911041
 20
115.9654610172913
  0
LWPOLYLINE
  5
3B9
330
1F
100
AcDbEntity
  8
Sichtbare_Kanten_TC_020513_DIN_
  6
Continuous
 62
     7
100
AcDbPolyline
 90
        2
 70
     0
 43
0.5
 10
247.2956801864961
 20
146.1807385698843
 10
242.3614047937001
 20
146.1807385698843
  0
LWPOLYLINE
  5
3BA
330
1F
100
AcDbEntity
  8
Sichtbare_Kanten_TC_020513_DIN_
  6
Continuous
 62
     7
100
AcDbPolyline
 90
        2
 70
     0
 43
0.5
 10
242.3614047937001
 20
144.7807385698843
 10
247.2956801864961
 20
144.7807385698843
  0
LWPOLYLINE
  5
3BB
330
1F
100
AcDbEntity
  8
Sichtbare_Kanten_TC_020513_DIN_
  6
Continuous
 62
     7
100
AcDbPolyline
 90
        2
 70
     0
 43
0.5
 10
248.778042096292
 20
144.7807385698843
 10
248.778042096292
 20
146.1807385698843
  0
LWPOLYLINE
  5
3BC
330
1F
100
AcDbEntity
  8
Sichtbare_Kanten_TC_020513_DIN_
  6
Continuous
 62
     7
100
AcDbPolyline
 90
        2
 70
     0
 43
0.5
 10
248.778042096292
 20
144.7807385698843
 10
247.2956801864961
 20
144.7807385698843
  0
LWPOLYLINE
  5
3BD
330
1F
100
AcDbEntity
  8
Sichtbare_Kanten_TC_020513_DIN_
  6
Continuous
 62
     7
100
AcDbPolyline
 90
        2
 70
     0
 43
0.5
 10
247.2956801864961
 20
146.1807385698843
 10
248.778042096292
 20
146.1807385698843
  0
LWPOLYLINE
  5
3BE
330
1F
100
AcDbEntity
  8
Sichtbare_Kanten_TC_020513_DIN_
  6
Continuous
 62
     7
100
AcDbPolyline
 90
        2
 70
     0
 43
0.5
 10
239.5614047936991
 20
134.9641012672933
 10
239.5614047936991
 20
134.7788060285693
  0
LWPOLYLINE
  5
3BF
330
1F
100
AcDbEntity
  8
Sichtbare_Kanten_TC_020513_DIN_
  6
Continuous
 62
     7
100
AcDbPolyline
 90
        2
 70
     0
 43
0.5
 10
239.5614047936991
 20
134.7788060285693
 10
239.5614047937001
 20
133.4039242387963
  0
LWPOLYLINE
  5
3C0
330
1F
100
AcDbEntity
  8
Sichtbare_Kanten_TC_020513_DIN_
  6
Continuous
 62
     7
100
AcDbPolyline
 90
        2
 70
     0
 43
0.5
 10
208.2947674911051
 20
117.4654610172913
 10
208.2947674911051
 20
117.5045037511643
  0
LWPOLYLINE
  5
3C1
330
1F
100
AcDbEntity
  8
Sichtbare_Kanten_TC_020513_DIN_
  6
Continuous
 62
     7
100
AcDbPolyline
 90
        2
 70
     0
 43
0.5
 10
215.7947674911051
 20
133.9276712526353
 10
215.7947674911051
 20
135.6031159322993
  0
LWPOLYLINE
  5
3C2
330
1F
100
AcDbEntity
  8
Sichtbare_Kanten_TC_020513_DIN_
  6
Continuous
 62
     7
100
AcDbPolyline
 90
        2
 70
     0
 43
0.5
 10
215.7947674911051
 20
135.6031159322993
 10
218.0236454274411
 20
138.8182504629973
  0
LWPOLYLINE
  5
3C3
330
1F
100
AcDbEntity
  8
Sichtbare_Kanten_TC_020513_DIN_
  6
Continuous
 62
     7
100
AcDbPolyline
 90
        2
 70
     0
 43
0.5
 10
218.081769446775
 20
139.2763261993133
 10
217.0161244382811
 20
142.1620083354263
  0
LWPOLYLINE
  5
3C4
330
1F
100
AcDbEntity
  8
Sichtbare_Kanten_TC_020513_DIN_
  6
Continuous
 62
     7
100
AcDbPolyline
 90
        2
 70
     0
 43
0.5
 10
208.5344858102771
 20
152.6031159322993
 10
216.5344858102771
 20
152.6031159322983
  0
LWPOLYLINE
  5
3C5
330
1F
100
AcDbEntity
  8
Sichtbare_Kanten_TC_020513_DIN_
  6
Continuous
 62
     7
100
AcDbPolyline
 90
        2
 70
     0
 43
0.5
 10
234.8202130175341
 20
147.4465772010893
 10
238.1614047936961
 20
145.3993575164903
  0
LWPOLYLINE
  5
3C6
330
1F
100
AcDbEntity
  8
Sichtbare_Kanten_TC_020513_DIN_
  6
Continuous
 62
     7
100
AcDbPolyline
 90
        2
 70
     0
 43
0.5
 10
238.1614047936961
 20
134.9641012672933
 10
236.7947674911051
 20
134.9641012672933
  0
LWPOLYLINE
  5
3C7
330
1F
100
AcDbEntity
  8
Sichtbare_Kanten_TC_020513_DIN_
  6
Continuous
 62
     7
100
AcDbPolyline
 90
        2
 70
     0
 43
0.5
 10
236.0104679649191
 20
135.3437189229083
 10
233.186917254198
 20
138.9133071044913
  0
LWPOLYLINE
  5
3C8
330
1F
100
AcDbEntity
  8
Sichtbare_Kanten_TC_020513_DIN_
  6
Continuous
 62
     7
100
AcDbPolyline
 90
        2
 70
     0
 43
0.5
 10
232.4845763189121
 20
138.9952656953913
 10
222.3708194296781
 20
130.9952656953913
  0
LWPOLYLINE
  5
3C9
330
1F
100
AcDbEntity
  8
Sichtbare_Kanten_TC_020513_DIN_
  6
Continuous
 62
     7
100
AcDbPolyline
 90
        2
 70
     0
 43
0.5
 10
222.182913252825
 20
130.6466938036723
 10
222.055812897499
 20
129.1939300946023
  0
LWPOLYLINE
  5
3CA
330
1F
100
AcDbEntity
  8
Sichtbare_Kanten_TC_020513_DIN_
  6
Continuous
 62
     7
100
AcDbPolyline
 90
        2
 70
     0
 43
0.5
 10
211.23090815274
 20
117.6031159322983
 10
211.1947674911051
 20
117.6031159322983
  0
LWPOLYLINE
  5
3CB
330
1F
100
AcDbEntity
  8
Sichtbare_Kanten_TC_020513_DIN_
  6
Continuous
 62
     7
100
AcDbPolyline
 90
        2
 70
     0
 43
0.5
 10
211.1947674911051
 20
117.6031159322983
 10
211.1947674911051
 20
117.4654610172913
  0
LWPOLYLINE
  5
3CC
330
1F
100
AcDbEntity
  8
Sichtbare_Kanten_TC_020513_DIN_
  6
Continuous
 62
     7
100
AcDbPolyline
 90
        2
 70
     0
 43
0.5
 10
240.9614047937001
 20
133.4039242387963
 10
240.9614047936991
 20
134.7788060285693
  0
LWPOLYLINE
  5
3CD
330
1F
100
AcDbEntity
  8
Sichtbare_Kanten_TC_020513_DIN_
  6
Continuous
 62
     7
100
AcDbPolyline
 90
        2
 70
     0
 43
0.5
 10
240.9614047936991
 20
134.7788060285693
 10
240.9614047936971
 20
134.9641012672933
  0
LWPOLYLINE
  5
3CE
330
1F
100
AcDbEntity
  8
Sichtbare_Kanten_TC_020513_DIN_
  6
Continuous
 62
     7
100
AcDbPolyline
 90
        2
 70
     0
 43
0.5
 10
239.6539034412811
 20
144.9641012672933
 10
240.9614047936971
 20
144.9641012672933
  0
LWPOLYLINE
  5
3CF
330
1F
100
AcDbEntity
  8
Sichtbare_Kanten_TC_020513_DIN_
  6
Continuous
 62
     7
100
AcDbPolyline
 90
        2
 70
     0
 43
0.5
 10
240.9614047936971
 20
134.9641012672933
 10
238.1614047936961
 20
134.9641012672933
  0
LWPOLYLINE
  5
3D0
330
1F
100
AcDbEntity
  8
Sichtbare_Kanten_TC_020513_DIN_
  6
Continuous
 62
     7
100
AcDbPolyline
 90
        2
 70
     0
 43
0.5
 10
240.9614047936971
 20
144.9641012672933
 10
240.9614047936971
 20
134.9641012672933
  0
LWPOLYLINE
  5
3D1
330
1F
100
AcDbEntity
  8
Sichtbare_Kanten_TC_020513_DIN_
  6
Continuous
 62
     7
100
AcDbPolyline
 90
        2
 70
     0
 43
0.5
 10
52.8814235699856
 20
134.6031159322993
 10
54.28142356998558
 20
134.6031159322993
  0
LWPOLYLINE
  5
3D2
330
1F
100
AcDbEntity
  8
Sichtbare_Kanten_TC_020513_DIN_
  6
Continuous
 62
     7
100
AcDbPolyline
 90
        2
 70
     0
 43
0.5
 10
52.8814235699856
 20
112.8691755076923
 10
54.28142356998558
 20
112.8691755076923
  0
LWPOLYLINE
  5
3D3
330
1F
100
AcDbEntity
  8
Sichtbare_Kanten_TC_020513_DIN_
  6
Continuous
 62
     7
100
AcDbPolyline
 90
        2
 70
     0
 43
0.5
 10
52.8814235699856
 20
128.6031159322983
 10
54.28142356998558
 20
128.6031159322983
  0
LWPOLYLINE
  5
3D4
330
1F
100
AcDbEntity
  8
Sichtbare_Kanten_TC_020513_DIN_
  6
Continuous
 62
     7
100
AcDbPolyline
 90
        2
 70
     0
 43
0.5
 10
52.8814235699856
 20
118.1864786297083
 10
52.8814235699856
 20
112.8691755076923
  0
LWPOLYLINE
  5
3D5
330
1F
100
AcDbEntity
  8
Sichtbare_Kanten_TC_020513_DIN_
  6
Continuous
 62
     7
100
AcDbPolyline
 90
        2
 70
     0
 43
0.5
 10
52.8814235699856
 20
134.6031159322993
 10
52.8814235699856
 20
133.8950916458773
  0
LWPOLYLINE
  5
3D6
330
1F
100
AcDbEntity
  8
Sichtbare_Kanten_TC_020513_DIN_
  6
Continuous
 62
     7
100
AcDbPolyline
 90
        2
 70
     0
 43
0.5
 10
52.8814235699856
 20
133.8950916458773
 10
52.8814235699856
 20
128.7815281822063
  0
LWPOLYLINE
  5
3D7
330
1F
100
AcDbEntity
  8
Sichtbare_Kanten_TC_020513_DIN_
  6
Continuous
 62
     7
100
AcDbPolyline
 90
        2
 70
     0
 43
0.5
 10
52.8814235699856
 20
128.6031159322983
 10
52.8814235699856
 20
128.7815281822063
  0
LWPOLYLINE
  5
3D8
330
1F
100
AcDbEntity
  8
Sichtbare_Kanten_TC_020513_DIN_
  6
Continuous
 62
     7
100
AcDbPolyline
 90
        2
 70
     0
 43
0.5
 10
52.8814235699856
 20
128.6031159322983
 10
52.8814235699856
 20
120.6031159322983
  0
LWPOLYLINE
  5
3D9
330
1F
100
AcDbEntity
  8
Sichtbare_Kanten_TC_020513_DIN_
  6
Continuous
 62
     7
100
AcDbPolyline
 90
        2
 70
     0
 43
0.5
 10
52.8814235699856
 20
118.1864786297083
 10
52.8814235699856
 20
120.6031159322983
  0
LWPOLYLINE
  5
3DA
330
1F
100
AcDbEntity
  8
Sichtbare_Kanten_TC_020513_DIN_
  6
Continuous
 62
     7
100
AcDbPolyline
 90
        2
 70
     0
 43
0.5
 10
54.28142356998558
 20
118.1864786297083
 10
54.28142356998558
 20
120.6031159322983
  0
LWPOLYLINE
  5
3DB
330
1F
100
AcDbEntity
  8
Sichtbare_Kanten_TC_020513_DIN_
  6
Continuous
 62
     7
100
AcDbPolyline
 90
        2
 70
     0
 43
0.5
 10
54.28142356998558
 20
128.6031159322983
 10
54.28142356998558
 20
120.6031159322983
  0
LWPOLYLINE
  5
3DC
330
1F
100
AcDbEntity
  8
Sichtbare_Kanten_TC_020513_DIN_
  6
Continuous
 62
     7
100
AcDbPolyline
 90
        2
 70
     0
 43
0.5
 10
54.28142356998558
 20
128.6031159322983
 10
54.28142356998558
 20
128.7815281822063
  0
LWPOLYLINE
  5
3DD
330
1F
100
AcDbEntity
  8
Sichtbare_Kanten_TC_020513_DIN_
  6
Continuous
 62
     7
100
AcDbPolyline
 90
        2
 70
     0
 43
0.5
 10
54.28142356998558
 20
133.8950916458773
 10
54.28142356998558
 20
128.7815281822063
  0
LWPOLYLINE
  5
3DE
330
1F
100
AcDbEntity
  8
Sichtbare_Kanten_TC_020513_DIN_
  6
Continuous
 62
     7
100
AcDbPolyline
 90
        2
 70
     0
 43
0.5
 10
54.28142356998558
 20
134.6031159322993
 10
54.28142356998558
 20
133.8950916458773
  0
LWPOLYLINE
  5
3DF
330
1F
100
AcDbEntity
  8
Sichtbare_Kanten_TC_020513_DIN_
  6
Continuous
 62
     7
100
AcDbPolyline
 90
        2
 70
     0
 43
0.5
 10
54.28142356998558
 20
115.7616074991113
 10
54.28142356998558
 20
112.8691755076923
  0
LWPOLYLINE
  5
3E0
330
1F
100
AcDbEntity
  8
Sichtbare_Kanten_TC_020513_DIN_
  6
Continuous
 62
     7
100
AcDbPolyline
 90
        2
 70
     0
 43
0.5
 10
60.38960569750827
 20
116.7864786297083
 10
66.7219642969639
 20
116.7864786297083
  0
LWPOLYLINE
  5
3E1
330
1F
100
AcDbEntity
  8
Sichtbare_Kanten_TC_020513_DIN_
  6
Continuous
 62
     7
100
AcDbPolyline
 90
        2
 70
     0
 43
0.5
 10
60.38960569750827
 20
116.7864786297083
 10
59.59806087257636
 20
116.7864786297083
  0
LWPOLYLINE
  5
3E2
330
1F
100
AcDbEntity
  8
Sichtbare_Kanten_TC_020513_DIN_
  6
Continuous
 62
     7
100
AcDbPolyline
 90
        2
 70
     0
 43
0.5
 10
59.59806087257636
 20
116.7864786297083
 10
55.68142356998555
 20
116.7864786297083
  0
LWPOLYLINE
  5
3E3
330
1F
100
AcDbEntity
  8
Sichtbare_Kanten_TC_020513_DIN_
  6
Continuous
 62
     7
100
AcDbPolyline
 90
        2
 70
     0
 43
0.5
 10
65.59806087257635
 20
115.2864786297083
 10
65.59806087257635
 20
114.4488237147003
  0
LWPOLYLINE
  5
3E4
330
1F
100
AcDbEntity
  8
Sichtbare_Kanten_TC_020513_DIN_
  6
Continuous
 62
     7
100
AcDbPolyline
 90
        2
 70
     0
 43
0.5
 10
77.09806087257635
 20
114.9488237147003
 10
77.09806087257635
 20
115.2864786297083
  0
LWPOLYLINE
  5
3E5
330
1F
100
AcDbEntity
  8
Sichtbare_Kanten_TC_020513_DIN_
  6
Continuous
 62
     7
100
AcDbPolyline
 90
        2
 70
     0
 43
0.5
 10
65.59806087257635
 20
114.4488237147003
 10
76.59806087257635
 20
114.4488237147003
  0
LWPOLYLINE
  5
3E6
330
1F
100
AcDbEntity
  8
Sichtbare_Kanten_TC_020513_DIN_
  6
Continuous
 62
     7
100
AcDbPolyline
 90
        2
 70
     0
 43
0.5
 10
107.0408828430071
 20
116.7864786297083
 10
66.7219642969639
 20
116.7864786297083
  0
LWPOLYLINE
  5
3E7
330
1F
100
AcDbEntity
  8
Sichtbare_Kanten_TC_020513_DIN_
  6
Continuous
 62
     7
100
AcDbPolyline
 90
        2
 70
     0
 43
0.5
 10
59.59806087257636
 20
115.3864786297083
 10
55.68142356998555
 20
115.3864786297083
  0
LWPOLYLINE
  5
3E8
330
1F
100
AcDbEntity
  8
Sichtbare_Kanten_TC_020513_DIN_
  6
Continuous
 62
     7
100
AcDbPolyline
 90
        2
 70
     0
 43
0.5
 10
60.38960569750827
 20
115.3864786297083
 10
59.59806087257636
 20
115.3864786297083
  0
LWPOLYLINE
  5
3E9
330
1F
100
AcDbEntity
  8
Sichtbare_Kanten_TC_020513_DIN_
  6
Continuous
 62
     7
100
AcDbPolyline
 90
        2
 70
     0
 43
0.5
 10
60.38960569750827
 20
115.3864786297083
 10
66.7219642969639
 20
115.3864786297083
  0
LWPOLYLINE
  5
3EA
330
1F
100
AcDbEntity
  8
Sichtbare_Kanten_TC_020513_DIN_
  6
Continuous
 62
     7
100
AcDbPolyline
 90
        2
 70
     0
 43
0.5
 10
107.0408828430071
 20
115.3864786297083
 10
66.7219642969639
 20
115.3864786297083
  0
LWPOLYLINE
  5
3EB
330
1F
100
AcDbEntity
  8
Sichtbare_Kanten_TC_020513_DIN_
  6
Continuous
 62
     7
100
AcDbPolyline
 90
        2
 70
     0
 43
0.5
 10
119.4814235699861
 20
134.6031159322993
 10
120.8814235699861
 20
134.6031159322993
  0
LWPOLYLINE
  5
3EC
330
1F
100
AcDbEntity
  8
Sichtbare_Kanten_TC_020513_DIN_
  6
Continuous
 62
     7
100
AcDbPolyline
 90
        2
 70
     0
 43
0.5
 10
119.4814235699861
 20
112.8691755076923
 10
120.8814235699861
 20
112.8691755076923
  0
LWPOLYLINE
  5
3ED
330
1F
100
AcDbEntity
  8
Sichtbare_Kanten_TC_020513_DIN_
  6
Continuous
 62
     7
100
AcDbPolyline
 90
        2
 70
     0
 43
0.5
 10
113.3732414424631
 20
115.3864786297083
 10
107.0408828430071
 20
115.3864786297083
  0
LWPOLYLINE
  5
3EE
330
1F
100
AcDbEntity
  8
Sichtbare_Kanten_TC_020513_DIN_
  6
Continuous
 62
     7
100
AcDbPolyline
 90
        2
 70
     0
 43
0.5
 10
113.3732414424631
 20
116.7864786297083
 10
107.0408828430071
 20
116.7864786297083
  0
LWPOLYLINE
  5
3EF
330
1F
100
AcDbEntity
  8
Sichtbare_Kanten_TC_020513_DIN_
  6
Continuous
 62
     7
100
AcDbPolyline
 90
        2
 70
     0
 43
0.5
 10
113.3732414424631
 20
115.3864786297083
 10
114.1647862673951
 20
115.3864786297083
  0
LWPOLYLINE
  5
3F0
330
1F
100
AcDbEntity
  8
Sichtbare_Kanten_TC_020513_DIN_
  6
Continuous
 62
     7
100
AcDbPolyline
 90
        2
 70
     0
 43
0.5
 10
113.3732414424631
 20
116.7864786297083
 10
114.1647862673951
 20
116.7864786297083
  0
LWPOLYLINE
  5
3F1
330
1F
100
AcDbEntity
  8
Sichtbare_Kanten_TC_020513_DIN_
  6
Continuous
 62
     7
100
AcDbPolyline
 90
        2
 70
     0
 43
0.5
 10
114.1647862673951
 20
115.3864786297083
 10
118.081423569986
 20
115.3864786297083
  0
LWPOLYLINE
  5
3F2
330
1F
100
AcDbEntity
  8
Sichtbare_Kanten_TC_020513_DIN_
  6
Continuous
 62
     7
100
AcDbPolyline
 90
        2
 70
     0
 43
0.5
 10
114.1647862673951
 20
116.7864786297083
 10
118.081423569986
 20
116.7864786297083
  0
LWPOLYLINE
  5
3F3
330
1F
100
AcDbEntity
  8
Sichtbare_Kanten_TC_020513_DIN_
  6
Continuous
 62
     7
100
AcDbPolyline
 90
        2
 70
     0
 43
0.5
 10
120.8814235699861
 20
128.6031159322983
 10
119.4814235699861
 20
128.6031159322983
  0
LWPOLYLINE
  5
3F4
330
1F
100
AcDbEntity
  8
Sichtbare_Kanten_TC_020513_DIN_
  6
Continuous
 62
     7
100
AcDbPolyline
 90
        2
 70
     0
 43
0.5
 10
120.8814235699861
 20
118.1864786297083
 10
120.8814235699861
 20
120.6031159322983
  0
LWPOLYLINE
  5
3F5
330
1F
100
AcDbEntity
  8
Sichtbare_Kanten_TC_020513_DIN_
  6
Continuous
 62
     7
100
AcDbPolyline
 90
        2
 70
     0
 43
0.5
 10
120.8814235699861
 20
128.6031159322983
 10
120.8814235699861
 20
120.6031159322983
  0
LWPOLYLINE
  5
3F6
330
1F
100
AcDbEntity
  8
Sichtbare_Kanten_TC_020513_DIN_
  6
Continuous
 62
     7
100
AcDbPolyline
 90
        2
 70
     0
 43
0.5
 10
120.8814235699861
 20
128.6031159322983
 10
120.8814235699861
 20
128.7815281822063
  0
LWPOLYLINE
  5
3F7
330
1F
100
AcDbEntity
  8
Sichtbare_Kanten_TC_020513_DIN_
  6
Continuous
 62
     7
100
AcDbPolyline
 90
        2
 70
     0
 43
0.5
 10
120.8814235699861
 20
133.8950916458773
 10
120.8814235699861
 20
128.7815281822063
  0
LWPOLYLINE
  5
3F8
330
1F
100
AcDbEntity
  8
Sichtbare_Kanten_TC_020513_DIN_
  6
Continuous
 62
     7
100
AcDbPolyline
 90
        2
 70
     0
 43
0.5
 10
120.8814235699861
 20
134.6031159322993
 10
120.8814235699861
 20
133.8950916458773
  0
LWPOLYLINE
  5
3F9
330
1F
100
AcDbEntity
  8
Sichtbare_Kanten_TC_020513_DIN_
  6
Continuous
 62
     7
100
AcDbPolyline
 90
        2
 70
     0
 43
0.5
 10
120.8814235699861
 20
118.1864786297083
 10
120.8814235699861
 20
112.8691755076923
  0
LWPOLYLINE
  5
3FA
330
1F
100
AcDbEntity
  8
Sichtbare_Kanten_TC_020513_DIN_
  6
Continuous
 62
     7
100
AcDbPolyline
 90
        2
 70
     0
 43
0.5
 10
119.4814235699861
 20
115.7616074991113
 10
119.4814235699861
 20
112.8691755076923
  0
LWPOLYLINE
  5
3FB
330
1F
100
AcDbEntity
  8
Sichtbare_Kanten_TC_020513_DIN_
  6
Continuous
 62
     7
100
AcDbPolyline
 90
        2
 70
     0
 43
0.5
 10
119.4814235699861
 20
134.6031159322993
 10
119.4814235699861
 20
133.8950916458773
  0
LWPOLYLINE
  5
3FC
330
1F
100
AcDbEntity
  8
Sichtbare_Kanten_TC_020513_DIN_
  6
Continuous
 62
     7
100
AcDbPolyline
 90
        2
 70
     0
 43
0.5
 10
119.4814235699861
 20
133.8950916458773
 10
119.4814235699861
 20
128.7815281822063
  0
LWPOLYLINE
  5
3FD
330
1F
100
AcDbEntity
  8
Sichtbare_Kanten_TC_020513_DIN_
  6
Continuous
 62
     7
100
AcDbPolyline
 90
        2
 70
     0
 43
0.5
 10
119.4814235699861
 20
128.6031159322983
 10
119.4814235699861
 20
128.7815281822063
  0
LWPOLYLINE
  5
3FE
330
1F
100
AcDbEntity
  8
Sichtbare_Kanten_TC_020513_DIN_
  6
Continuous
 62
     7
100
AcDbPolyline
 90
        2
 70
     0
 43
0.5
 10
119.4814235699861
 20
128.6031159322983
 10
119.4814235699861
 20
120.6031159322983
  0
LWPOLYLINE
  5
3FF
330
1F
100
AcDbEntity
  8
Sichtbare_Kanten_TC_020513_DIN_
  6
Continuous
 62
     7
100
AcDbPolyline
 90
        2
 70
     0
 43
0.5
 10
119.4814235699861
 20
118.1864786297083
 10
119.4814235699861
 20
120.6031159322983
  0
LWPOLYLINE
  5
400
330
1F
100
AcDbEntity
  8
Sichtbare_Kanten_TC_020513_DIN_
  6
Continuous
 62
     7
100
AcDbPolyline
 90
        2
 70
     0
 43
0.5
 10
108.1647862673951
 20
115.2864786297083
 10
108.1647862673951
 20
114.4488237147003
  0
LWPOLYLINE
  5
401
330
1F
100
AcDbEntity
  8
Sichtbare_Kanten_TC_020513_DIN_
  6
Continuous
 62
     7
100
AcDbPolyline
 90
        2
 70
     0
 43
0.5
 10
96.66478626739507
 20
114.9488237147003
 10
96.66478626739507
 20
115.2864786297083
  0
LWPOLYLINE
  5
402
330
1F
100
AcDbEntity
  8
Sichtbare_Kanten_TC_020513_DIN_
  6
Continuous
 62
     7
100
AcDbPolyline
 90
        2
 70
     0
 43
0.5
 10
108.1647862673951
 20
114.4488237147003
 10
97.16478626739507
 20
114.4488237147003
  0
LWPOLYLINE
  5
403
330
1F
100
AcDbEntity
  8
Sichtbare_Kanten_TC_020513_DIN_
  6
Continuous
 62
     7
100
AcDbPolyline
 90
        2
 70
     0
 43
0.5
 10
77.09806087257635
 20
115.2864786297083
 10
77.09806087257635
 20
115.3663444954933
  0
LWPOLYLINE
  5
404
330
1F
100
AcDbEntity
  8
Sichtbare_Kanten_TC_020513_DIN_
  6
Continuous
 62
     7
100
AcDbPolyline
 90
        2
 70
     0
 43
0.5
 10
65.59806087257635
 20
115.3864786297083
 10
65.59806087257635
 20
115.2864786297083
  0
LWPOLYLINE
  5
405
330
1F
100
AcDbEntity
  8
Sichtbare_Kanten_TC_020513_DIN_
  6
Continuous
 62
     7
100
AcDbPolyline
 90
        2
 70
     0
 43
0.5
 10
108.1647862673951
 20
115.2864786297083
 10
108.1647862673951
 20
115.3864786297083
  0
LWPOLYLINE
  5
406
330
1F
100
AcDbEntity
  8
Sichtbare_Kanten_TC_020513_DIN_
  6
Continuous
 62
     7
100
AcDbPolyline
 90
        2
 70
     0
 43
0.5
 10
96.66478626739507
 20
115.3663444954933
 10
96.66478626739507
 20
115.2864786297083
  0
LWPOLYLINE
  5
407
330
1F
100
AcDbEntity
  8
Sichtbare_Kanten_TC_020513_DIN_
  6
Continuous
 62
     7
100
AcDbPolyline
 90
        2
 70
     0
 43
0.5
 10
118.8814235699861
 20
125.1031159322983
 10
119.4814235699861
 20
125.1031159322983
  0
LWPOLYLINE
  5
408
330
1F
100
AcDbEntity
  8
Sichtbare_Kanten_TC_020513_DIN_
  6
Continuous
 62
     7
100
AcDbPolyline
 90
        2
 70
     0
 43
0.5
 10
116.2214235699861
 20
125.1031159322983
 10
117.4814235699861
 20
125.1031159322983
  0
LWPOLYLINE
  5
409
330
1F
100
AcDbEntity
  8
Sichtbare_Kanten_TC_020513_DIN_
  6
Continuous
 62
     7
100
AcDbPolyline
 90
        2
 70
     0
 43
0.5
 10
118.8814235699861
 20
130.1031159322983
 10
119.4814235699861
 20
130.1031159322983
  0
LWPOLYLINE
  5
40A
330
1F
100
AcDbEntity
  8
Sichtbare_Kanten_TC_020513_DIN_
  6
Continuous
 62
     7
100
AcDbPolyline
 90
        2
 70
     0
 43
0.5
 10
116.2214235699861
 20
130.1031159322983
 10
117.4814235699861
 20
130.1031159322983
  0
LWPOLYLINE
  5
40B
330
1F
100
AcDbEntity
  8
Sichtbare_Kanten_TC_020513_DIN_
  6
Continuous
 62
     7
100
AcDbPolyline
 90
        2
 70
     0
 43
0.5
 10
120.8814235699861
 20
125.1031159322983
 10
121.4814235699861
 20
125.1031159322983
  0
LWPOLYLINE
  5
40C
330
1F
100
AcDbEntity
  8
Sichtbare_Kanten_TC_020513_DIN_
  6
Continuous
 62
     7
100
AcDbPolyline
 90
        2
 70
     0
 43
0.5
 10
120.8814235699861
 20
130.1031159322983
 10
121.4814235699861
 20
130.1031159322983
  0
LWPOLYLINE
  5
40D
330
1F
100
AcDbEntity
  8
Sichtbare_Kanten_TC_020513_DIN_
  6
Continuous
 62
     7
100
AcDbPolyline
 90
        2
 70
     0
 43
0.5
 10
116.1314235699861
 20
126.1031159322983
 10
116.2214235699861
 20
126.1031159322983
  0
LWPOLYLINE
  5
40E
330
1F
100
AcDbEntity
  8
Sichtbare_Kanten_TC_020513_DIN_
  6
Continuous
 62
     7
100
AcDbPolyline
 90
        2
 70
     0
 43
0.5
 10
116.1314235699861
 20
129.1031159322983
 10
116.2214235699861
 20
129.1031159322983
  0
LWPOLYLINE
  5
40F
330
1F
100
AcDbEntity
  8
Sichtbare_Kanten_TC_020513_DIN_
  6
Continuous
 62
     7
100
AcDbPolyline
 90
        2
 70
     0
 43
0.5
 10
122.8814235699861
 20
123.6031159322983
 10
122.8814235699861
 20
131.6031159322983
  0
LWPOLYLINE
  5
410
330
1F
100
AcDbEntity
  8
Sichtbare_Kanten_TC_020513_DIN_
  6
Continuous
 62
     7
100
AcDbPolyline
 90
        2
 70
     0
 43
0.5
 10
121.4814235699861
 20
123.6031159322983
 10
121.4814235699861
 20
131.6031159322983
  0
LWPOLYLINE
  5
411
330
1F
100
AcDbEntity
  8
Sichtbare_Kanten_TC_020513_DIN_
  6
Continuous
 62
     7
100
AcDbPolyline
 90
        2
 70
     0
 43
0.5
 10
116.2214235699861
 20
125.1031159322983
 10
116.2214235699861
 20
130.1031159322983
  0
LWPOLYLINE
  5
412
330
1F
100
AcDbEntity
  8
Sichtbare_Kanten_TC_020513_DIN_
  6
Continuous
 62
     7
100
AcDbPolyline
 90
        2
 70
     0
 43
0.5
 10
56.28142356998558
 20
125.1031159322983
 10
57.54142356998557
 20
125.1031159322983
  0
LWPOLYLINE
  5
413
330
1F
100
AcDbEntity
  8
Sichtbare_Kanten_TC_020513_DIN_
  6
Continuous
 62
     7
100
AcDbPolyline
 90
        2
 70
     0
 43
0.5
 10
54.28142356998558
 20
125.1031159322983
 10
54.8814235699856
 20
125.1031159322983
  0
LWPOLYLINE
  5
414
330
1F
100
AcDbEntity
  8
Sichtbare_Kanten_TC_020513_DIN_
  6
Continuous
 62
     7
100
AcDbPolyline
 90
        2
 70
     0
 43
0.5
 10
56.28142356998558
 20
130.1031159322983
 10
57.54142356998557
 20
130.1031159322983
  0
LWPOLYLINE
  5
415
330
1F
100
AcDbEntity
  8
Sichtbare_Kanten_TC_020513_DIN_
  6
Continuous
 62
     7
100
AcDbPolyline
 90
        2
 70
     0
 43
0.5
 10
54.28142356998558
 20
130.1031159322983
 10
54.8814235699856
 20
130.1031159322983
  0
LWPOLYLINE
  5
416
330
1F
100
AcDbEntity
  8
Sichtbare_Kanten_TC_020513_DIN_
  6
Continuous
 62
     7
100
AcDbPolyline
 90
        2
 70
     0
 43
0.5
 10
52.28142356998558
 20
125.1031159322983
 10
52.8814235699856
 20
125.1031159322983
  0
LWPOLYLINE
  5
417
330
1F
100
AcDbEntity
  8
Sichtbare_Kanten_TC_020513_DIN_
  6
Continuous
 62
     7
100
AcDbPolyline
 90
        2
 70
     0
 43
0.5
 10
52.28142356998558
 20
130.1031159322983
 10
52.8814235699856
 20
130.1031159322983
  0
LWPOLYLINE
  5
418
330
1F
100
AcDbEntity
  8
Sichtbare_Kanten_TC_020513_DIN_
  6
Continuous
 62
     7
100
AcDbPolyline
 90
        2
 70
     0
 43
0.5
 10
57.54142356998557
 20
126.1031159322983
 10
57.6314235699856
 20
126.1031159322983
  0
LWPOLYLINE
  5
419
330
1F
100
AcDbEntity
  8
Sichtbare_Kanten_TC_020513_DIN_
  6
Continuous
 62
     7
100
AcDbPolyline
 90
        2
 70
     0
 43
0.5
 10
57.54142356998557
 20
129.1031159322983
 10
57.6314235699856
 20
129.1031159322983
  0
LWPOLYLINE
  5
41A
330
1F
100
AcDbEntity
  8
Sichtbare_Kanten_TC_020513_DIN_
  6
Continuous
 62
     7
100
AcDbPolyline
 90
        2
 70
     0
 43
0.5
 10
50.8814235699856
 20
123.6031159322983
 10
50.8814235699856
 20
131.6031159322983
  0
LWPOLYLINE
  5
41B
330
1F
100
AcDbEntity
  8
Sichtbare_Kanten_TC_020513_DIN_
  6
Continuous
 62
     7
100
AcDbPolyline
 90
        2
 70
     0
 43
0.5
 10
52.28142356998558
 20
123.6031159322983
 10
52.28142356998558
 20
131.6031159322983
  0
LWPOLYLINE
  5
41C
330
1F
100
AcDbEntity
  8
Sichtbare_Kanten_TC_020513_DIN_
  6
Continuous
 62
     7
100
AcDbPolyline
 90
        2
 70
     0
 43
0.5
 10
57.54142356998557
 20
125.1031159322983
 10
57.54142356998557
 20
130.1031159322983
  0
LWPOLYLINE
  5
41D
330
1F
100
AcDbEntity
  8
Sichtbare_Kanten_TC_020513_DIN_
  6
Continuous
 62
     7
100
AcDbPolyline
 90
        2
 70
     0
 43
0.5
 10
115.9314235699861
 20
134.6031159322993
 10
110.1314235699861
 20
134.6031159322993
  0
LWPOLYLINE
  5
41E
330
1F
100
AcDbEntity
  8
Sichtbare_Kanten_TC_020513_DIN_
  6
Continuous
 62
     7
100
AcDbPolyline
 90
        2
 70
     0
 43
0.5
 10
115.9314235699861
 20
134.6031159322993
 10
115.9314235699861
 20
130.6031159322993
  0
LWPOLYLINE
  5
41F
330
1F
100
AcDbEntity
  8
Sichtbare_Kanten_TC_020513_DIN_
  6
Continuous
 62
     7
100
AcDbPolyline
 90
        2
 70
     0
 43
0.5
 10
106.3262287914091
 20
134.6031159322993
 10
110.1314235699861
 20
134.6031159322993
  0
LWPOLYLINE
  5
420
330
1F
100
AcDbEntity
  8
Sichtbare_Kanten_TC_020513_DIN_
  6
Continuous
 62
     7
100
AcDbPolyline
 90
        2
 70
     0
 43
0.5
 10
63.63142356998554
 20
134.6031159322993
 10
67.43661834856249
 20
134.6031159322993
  0
LWPOLYLINE
  5
421
330
1F
100
AcDbEntity
  8
Sichtbare_Kanten_TC_020513_DIN_
  6
Continuous
 62
     7
100
AcDbPolyline
 90
        2
 70
     0
 43
0.5
 10
63.63142356998554
 20
134.6031159322993
 10
57.83142356998559
 20
134.6031159322993
  0
LWPOLYLINE
  5
422
330
1F
100
AcDbEntity
  8
Sichtbare_Kanten_TC_020513_DIN_
  6
Continuous
 62
     7
100
AcDbPolyline
 90
        2
 70
     0
 43
0.5
 10
57.83142356998559
 20
134.6031159322993
 10
57.83142356998559
 20
130.6031159322993
  0
LWPOLYLINE
  5
423
330
1F
100
AcDbEntity
  8
Sichtbare_Kanten_TC_020513_DIN_
  6
Continuous
 62
     7
100
AcDbPolyline
 90
        2
 70
     0
 43
0.5
 10
68.47184708298226
 20
130.6031159322993
 10
63.63142356998554
 20
130.6031159322983
  0
LWPOLYLINE
  5
424
330
1F
100
AcDbEntity
  8
Sichtbare_Kanten_TC_020513_DIN_
  6
Continuous
 62
     7
100
AcDbPolyline
 90
        2
 70
     0
 43
0.5
 10
110.1314235699861
 20
130.6031159322983
 10
105.2910000569891
 20
130.6031159322993
  0
LWPOLYLINE
  5
425
330
1F
100
AcDbEntity
  8
Sichtbare_Kanten_TC_020513_DIN_
  6
Continuous
 62
     7
100
AcDbPolyline
 90
        2
 70
     0
 43
0.5
 10
110.1314235699861
 20
130.6031159322983
 10
116.1314235699861
 20
130.6031159322993
  0
LWPOLYLINE
  5
426
330
1F
100
AcDbEntity
  8
Sichtbare_Kanten_TC_020513_DIN_
  6
Continuous
 62
     7
100
AcDbPolyline
 90
        2
 70
     0
 43
0.5
 10
57.6314235699856
 20
130.6031159322993
 10
63.63142356998554
 20
130.6031159322983
  0
LWPOLYLINE
  5
427
330
1F
100
AcDbEntity
  8
Sichtbare_Kanten_TC_020513_DIN_
  6
Continuous
 62
     7
100
AcDbPolyline
 90
        2
 70
     0
 43
0.5
 10
57.6314235699856
 20
116.7864786297083
 10
57.6314235699856
 20
130.6031159322993
  0
LWPOLYLINE
  5
428
330
1F
100
AcDbEntity
  8
Sichtbare_Kanten_TC_020513_DIN_
  6
Continuous
 62
     7
100
AcDbPolyline
 90
        2
 70
     0
 43
0.5
 10
57.6314235699856
 20
65.60311593229869
 10
57.6314235699856
 20
115.3864786297083
  0
LWPOLYLINE
  5
429
330
1F
100
AcDbEntity
  8
Sichtbare_Kanten_TC_020513_DIN_
  6
Continuous
 62
     7
100
AcDbPolyline
 90
        2
 70
     0
 43
0.5
 10
116.1314235699861
 20
116.7864786297083
 10
116.1314235699861
 20
130.6031159322993
  0
LWPOLYLINE
  5
42A
330
1F
100
AcDbEntity
  8
Sichtbare_Kanten_TC_020513_DIN_
  6
Continuous
 62
     7
100
AcDbPolyline
 90
        2
 70
     0
 43
0.5
 10
116.1314235699861
 20
65.60311593229869
 10
116.1314235699861
 20
115.3864786297083
  0
LWPOLYLINE
  5
42B
330
1F
100
AcDbEntity
  8
Sichtbare_Kanten_TC_020513_DIN_
  6
Continuous
 62
     7
100
AcDbPolyline
 90
        2
 70
     0
 43
0.5
 10
127.8814235699861
 20
96.1331159322983
 10
116.1314235699861
 20
96.1331159322983
  0
LWPOLYLINE
  5
42C
330
1F
100
AcDbEntity
  8
Sichtbare_Kanten_TC_020513_DIN_
  6
Continuous
 62
     7
100
AcDbPolyline
 90
        2
 70
     0
 43
0.5
 10
127.8814235699861
 20
80.99311593229879
 10
127.8814235699861
 20
67.60311593229879
  0
LWPOLYLINE
  5
42D
330
1F
100
AcDbEntity
  8
Sichtbare_Kanten_TC_020513_DIN_
  6
Continuous
 62
     7
100
AcDbPolyline
 90
        2
 70
     0
 43
0.5
 10
127.8814235699861
 20
80.99311593229879
 10
127.8814235699861
 20
94.38311593229929
  0
LWPOLYLINE
  5
42E
330
1F
100
AcDbEntity
  8
Sichtbare_Kanten_TC_020513_DIN_
  6
Continuous
 62
     7
100
AcDbPolyline
 90
        2
 70
     0
 43
0.5
 10
45.8814235699856
 20
61.60311593229879
 10
45.8814235699856
 20
65.60311593229869
  0
LWPOLYLINE
  5
42F
330
1F
100
AcDbEntity
  8
Sichtbare_Kanten_TC_020513_DIN_
  6
Continuous
 62
     7
100
AcDbPolyline
 90
        2
 70
     0
 43
0.5
 10
54.8814235699856
 20
61.60311593229879
 10
54.8814235699856
 20
65.60311593229869
  0
LWPOLYLINE
  5
430
330
1F
100
AcDbEntity
  8
Sichtbare_Kanten_TC_020513_DIN_
  6
Continuous
 62
     7
100
AcDbPolyline
 90
        2
 70
     0
 43
0.5
 10
64.88142356998554
 20
61.60311593229879
 10
64.88142356998554
 20
65.60311593229869
  0
LWPOLYLINE
  5
431
330
1F
100
AcDbEntity
  8
Sichtbare_Kanten_TC_020513_DIN_
  6
Continuous
 62
     7
100
AcDbPolyline
 90
        2
 70
     0
 43
0.5
 10
108.8814235699861
 20
61.60311593229879
 10
108.8814235699861
 20
65.60311593229869
  0
LWPOLYLINE
  5
432
330
1F
100
AcDbEntity
  8
Sichtbare_Kanten_TC_020513_DIN_
  6
Continuous
 62
     7
100
AcDbPolyline
 90
        2
 70
     0
 43
0.5
 10
118.8814235699861
 20
61.60311593229879
 10
118.8814235699861
 20
65.60311593229869
  0
LWPOLYLINE
  5
433
330
1F
100
AcDbEntity
  8
Sichtbare_Kanten_TC_020513_DIN_
  6
Continuous
 62
     7
100
AcDbPolyline
 90
        2
 70
     0
 43
0.5
 10
127.8814235699861
 20
65.60311593229869
 10
118.8814235699861
 20
65.60311593229869
  0
LWPOLYLINE
  5
434
330
1F
100
AcDbEntity
  8
Sichtbare_Kanten_TC_020513_DIN_
  6
Continuous
 62
     7
100
AcDbPolyline
 90
        2
 70
     0
 43
0.5
 10
118.8814235699861
 20
65.60311593229869
 10
108.8814235699861
 20
65.60311593229869
  0
LWPOLYLINE
  5
435
330
1F
100
AcDbEntity
  8
Sichtbare_Kanten_TC_020513_DIN_
  6
Continuous
 62
     7
100
AcDbPolyline
 90
        2
 70
     0
 43
0.5
 10
127.8814235699861
 20
61.60311593229879
 10
127.8814235699861
 20
65.60311593229869
  0
LWPOLYLINE
  5
436
330
1F
100
AcDbEntity
  8
Sichtbare_Kanten_TC_020513_DIN_
  6
Continuous
 62
     7
100
AcDbPolyline
 90
        2
 70
     0
 43
0.5
 10
64.88142356998554
 20
65.60311593229869
 10
54.8814235699856
 20
65.60311593229869
  0
LWPOLYLINE
  5
437
330
1F
100
AcDbEntity
  8
Sichtbare_Kanten_TC_020513_DIN_
  6
Continuous
 62
     7
100
AcDbPolyline
 90
        2
 70
     0
 43
0.5
 10
54.8814235699856
 20
65.60311593229869
 10
45.8814235699856
 20
65.60311593229869
  0
LWPOLYLINE
  5
438
330
1F
100
AcDbEntity
  8
Sichtbare_Kanten_TC_020513_DIN_
  6
Continuous
 62
     7
100
AcDbPolyline
 90
        2
 70
     0
 43
0.5
 10
54.8814235699856
 20
61.60311593229879
 10
45.8814235699856
 20
61.60311593229879
  0
LWPOLYLINE
  5
439
330
1F
100
AcDbEntity
  8
Sichtbare_Kanten_TC_020513_DIN_
  6
Continuous
 62
     7
100
AcDbPolyline
 90
        2
 70
     0
 43
0.5
 10
64.88142356998554
 20
61.60311593229879
 10
54.8814235699856
 20
61.60311593229879
  0
LWPOLYLINE
  5
43A
330
1F
100
AcDbEntity
  8
Sichtbare_Kanten_TC_020513_DIN_
  6
Continuous
 62
     7
100
AcDbPolyline
 90
        2
 70
     0
 43
0.5
 10
108.8814235699861
 20
61.60311593229879
 10
64.88142356998554
 20
61.60311593229879
  0
LWPOLYLINE
  5
43B
330
1F
100
AcDbEntity
  8
Sichtbare_Kanten_TC_020513_DIN_
  6
Continuous
 62
     7
100
AcDbPolyline
 90
        2
 70
     0
 43
0.5
 10
118.8814235699861
 20
61.60311593229879
 10
108.8814235699861
 20
61.60311593229879
  0
LWPOLYLINE
  5
43C
330
1F
100
AcDbEntity
  8
Sichtbare_Kanten_TC_020513_DIN_
  6
Continuous
 62
     7
100
AcDbPolyline
 90
        2
 70
     0
 43
0.5
 10
127.8814235699861
 20
61.60311593229879
 10
118.8814235699861
 20
61.60311593229879
  0
LWPOLYLINE
  5
43D
330
1F
100
AcDbEntity
  8
Sichtbare_Kanten_TC_020513_DIN_
  6
Continuous
 62
     7
100
AcDbPolyline
 90
        2
 70
     0
 43
0.5
 10
57.6314235699856
 20
96.1331159322983
 10
45.8814235699856
 20
96.1331159322983
  0
LWPOLYLINE
  5
43E
330
1F
100
AcDbEntity
  8
Sichtbare_Kanten_TC_020513_DIN_
  6
Continuous
 62
     7
100
AcDbPolyline
 90
        2
 70
     0
 43
0.5
 10
45.8814235699856
 20
80.99311593229879
 10
45.8814235699856
 20
96.1331159322983
  0
LWPOLYLINE
  5
43F
330
1F
100
AcDbEntity
  8
Sichtbare_Kanten_TC_020513_DIN_
  6
Continuous
 62
     7
100
AcDbPolyline
 90
        2
 70
     0
 43
0.5
 10
45.8814235699856
 20
80.99311593229879
 10
45.8814235699856
 20
65.60311593229869
  0
LWPOLYLINE
  5
440
330
1F
100
AcDbEntity
  8
Sichtbare_Kanten_TC_020513_DIN_
  6
Continuous
 62
     7
100
AcDbPolyline
 90
        2
 70
     0
 43
0.5
 10
118.8814235699861
 20
145.3993575164903
 10
118.8814235699861
 20
134.9641012672933
  0
LWPOLYLINE
  5
441
330
1F
100
AcDbEntity
  8
Sichtbare_Kanten_TC_020513_DIN_
  6
Continuous
 62
     7
100
AcDbPolyline
 90
        2
 70
     0
 43
0.5
 10
118.8814235699861
 20
134.9641012672933
 10
116.081423569986
 20
134.9641012672933
  0
LWPOLYLINE
  5
442
330
1F
100
AcDbEntity
  8
Sichtbare_Kanten_TC_020513_DIN_
  6
Continuous
 62
     7
100
AcDbPolyline
 90
        2
 70
     0
 43
0.5
 10
116.081423569986
 20
144.9641012672933
 10
118.4504840983291
 20
144.9641012672933
  0
LWPOLYLINE
  5
443
330
1F
100
AcDbEntity
  8
Sichtbare_Kanten_TC_020513_DIN_
  6
Continuous
 62
     7
100
AcDbPolyline
 90
        2
 70
     0
 43
0.5
 10
117.4814235699861
 20
145.3993575164903
 10
118.0974254827661
 20
145.3993575164903
  0
LWPOLYLINE
  5
444
330
1F
100
AcDbEntity
  8
Sichtbare_Kanten_TC_020513_DIN_
  6
Continuous
 62
     7
100
AcDbPolyline
 90
        2
 70
     0
 43
0.5
 10
118.0974254827661
 20
145.3993575164903
 10
118.8814235699861
 20
145.3993575164903
  0
LWPOLYLINE
  5
445
330
1F
100
AcDbEntity
  8
Sichtbare_Kanten_TC_020513_DIN_
  6
Continuous
 62
     7
100
AcDbPolyline
 90
        2
 70
     0
 43
0.5
 10
105.7692059255111
 20
132.2205931059223
 10
105.7692059255111
 20
132.5519241948053
  0
LWPOLYLINE
  5
446
330
1F
100
AcDbEntity
  8
Sichtbare_Kanten_TC_020513_DIN_
  6
Continuous
 62
     7
100
AcDbPolyline
 90
        2
 70
     0
 43
0.5
 10
105.7692059255111
 20
132.5519241948053
 10
105.7692059255111
 20
132.8122586723593
  0
LWPOLYLINE
  5
447
330
1F
100
AcDbEntity
  8
Sichtbare_Kanten_TC_020513_DIN_
  6
Continuous
 62
     7
100
AcDbPolyline
 90
        2
 70
     0
 43
0.5
 10
104.5036366444681
 20
144.7807385698843
 10
104.5036366444681
 20
145.3967397001653
  0
LWPOLYLINE
  5
448
330
1F
100
AcDbEntity
  8
Sichtbare_Kanten_TC_020513_DIN_
  6
Continuous
 62
     7
100
AcDbPolyline
 90
        2
 70
     0
 43
0.5
 10
104.5036366444681
 20
145.3967397001653
 10
104.5036366444681
 20
146.1807385698843
  0
LWPOLYLINE
  5
449
330
1F
100
AcDbEntity
  8
Sichtbare_Kanten_TC_020513_DIN_
  6
Continuous
 62
     7
100
AcDbPolyline
 90
        2
 70
     0
 43
0.5
 10
69.2592104955034
 20
146.1807385698843
 10
69.2592104955034
 20
145.3967397001663
  0
LWPOLYLINE
  5
44A
330
1F
100
AcDbEntity
  8
Sichtbare_Kanten_TC_020513_DIN_
  6
Continuous
 62
     7
100
AcDbPolyline
 90
        2
 70
     0
 43
0.5
 10
69.2592104955034
 20
145.3967397001663
 10
69.2592104955034
 20
144.7807385698843
  0
LWPOLYLINE
  5
44B
330
1F
100
AcDbEntity
  8
Sichtbare_Kanten_TC_020513_DIN_
  6
Continuous
 62
     7
100
AcDbPolyline
 90
        2
 70
     0
 43
0.5
 10
55.31236304164207
 20
144.9641012672933
 10
57.68142356998555
 20
144.9641012672933
  0
LWPOLYLINE
  5
44C
330
1F
100
AcDbEntity
  8
Sichtbare_Kanten_TC_020513_DIN_
  6
Continuous
 62
     7
100
AcDbPolyline
 90
        2
 70
     0
 43
0.5
 10
57.68142356998555
 20
134.9641012672933
 10
54.8814235699856
 20
134.9641012672933
  0
LWPOLYLINE
  5
44D
330
1F
100
AcDbEntity
  8
Sichtbare_Kanten_TC_020513_DIN_
  6
Continuous
 62
     7
100
AcDbPolyline
 90
        2
 70
     0
 43
0.5
 10
54.8814235699856
 20
145.3993575164903
 10
55.66542165720557
 20
145.3993575164903
  0
LWPOLYLINE
  5
44E
330
1F
100
AcDbEntity
  8
Sichtbare_Kanten_TC_020513_DIN_
  6
Continuous
 62
     7
100
AcDbPolyline
 90
        2
 70
     0
 43
0.5
 10
55.66542165720557
 20
145.3993575164903
 10
56.28142356998558
 20
145.3993575164903
  0
LWPOLYLINE
  5
44F
330
1F
100
AcDbEntity
  8
Sichtbare_Kanten_TC_020513_DIN_
  6
Continuous
 62
     7
100
AcDbPolyline
 90
        2
 70
     0
 43
0.5
 10
54.8814235699856
 20
134.9641012672933
 10
54.8814235699856
 20
145.3993575164903
  0
LWPOLYLINE
  5
450
330
1F
100
AcDbEntity
  8
Sichtbare_Kanten_TC_020513_DIN_
  6
Continuous
 62
     7
100
AcDbPolyline
 90
        2
 70
     0
 43
0.5
 10
67.99364121446007
 20
132.8122586723593
 10
67.99364121446007
 20
132.5519241948073
  0
LWPOLYLINE
  5
451
330
1F
100
AcDbEntity
  8
Sichtbare_Kanten_TC_020513_DIN_
  6
Continuous
 62
     7
100
AcDbPolyline
 90
        2
 70
     0
 43
0.5
 10
67.99364121446007
 20
132.5519241948073
 10
67.99364121446007
 20
132.2205931059223
  0
LWPOLYLINE
  5
452
330
1F
100
AcDbEntity
  8
Sichtbare_Kanten_TC_020513_DIN_
  6
Continuous
 62
     7
100
AcDbPolyline
 90
        2
 70
     0
 43
0.5
 10
102.2088086201311
 20
125.3687457936193
 10
71.55403851984028
 20
125.3687457936193
  0
LWPOLYLINE
  5
453
330
1F
100
AcDbEntity
  8
Sichtbare_Kanten_TC_020513_DIN_
  6
Continuous
 62
     7
100
AcDbPolyline
 90
        2
 70
     0
 43
0.5
 10
71.55403851984028
 20
125.9604113600563
 10
102.2088086201311
 20
125.9604113600563
  0
LWPOLYLINE
  5
454
330
1F
100
AcDbEntity
  8
Sichtbare_Kanten_TC_020513_DIN_
  6
Continuous
 62
     7
100
AcDbPolyline
 90
        2
 70
     0
 43
0.5
 10
101.2496498851571
 20
146.1807385698843
 10
72.51319725481397
 20
146.1807385698843
  0
LWPOLYLINE
  5
455
330
1F
100
AcDbEntity
  8
Sichtbare_Kanten_TC_020513_DIN_
  6
Continuous
 62
     7
100
AcDbPolyline
 90
        2
 70
     0
 43
0.5
 10
101.2496498851571
 20
144.7807385698843
 10
72.51319725481397
 20
144.7807385698843
  0
LWPOLYLINE
  5
456
330
1F
100
AcDbEntity
  8
Sichtbare_Kanten_TC_020513_DIN_
  6
Continuous
 62
     7
100
AcDbPolyline
 90
        2
 70
     0
 43
0.5
 10
69.62218686726209
 20
127.3038875021103
 10
67.99364121446007
 20
132.8122586723593
  0
LWPOLYLINE
  5
457
330
1F
100
AcDbEntity
  8
Sichtbare_Kanten_TC_020513_DIN_
  6
Continuous
 62
     7
100
AcDbPolyline
 90
        2
 70
     0
 43
0.5
 10
67.99364121446007
 20
132.2205931059223
 10
69.62218686726209
 20
126.7122219356733
  0
LWPOLYLINE
  5
458
330
1F
100
AcDbEntity
  8
Sichtbare_Kanten_TC_020513_DIN_
  6
Continuous
 62
     7
100
AcDbPolyline
 90
        2
 70
     0
 43
0.5
 10
51.84376865497819
 20
117.3654610172913
 10
51.84376865497819
 20
115.9654610172913
  0
LWPOLYLINE
  5
459
330
1F
100
AcDbEntity
  8
Sichtbare_Kanten_TC_020513_DIN_
  6
Continuous
 62
     7
100
AcDbPolyline
 90
        2
 70
     0
 43
0.5
 10
51.84376865497819
 20
117.3654610172913
 10
52.34376865497819
 20
117.3654610172913
  0
LWPOLYLINE
  5
45A
330
1F
100
AcDbEntity
  8
Sichtbare_Kanten_TC_020513_DIN_
  6
Continuous
 62
     7
100
AcDbPolyline
 90
        2
 70
     0
 43
0.5
 10
52.34376865497819
 20
115.9654610172913
 10
51.84376865497819
 20
115.9654610172913
  0
LWPOLYLINE
  5
45B
330
1F
100
AcDbEntity
  8
Sichtbare_Kanten_TC_020513_DIN_
  6
Continuous
 62
     7
100
AcDbPolyline
 90
        2
 70
     0
 43
0.5
 10
52.34376865497819
 20
115.9654610172913
 10
52.8814235699856
 20
115.9654610172913
  0
LWPOLYLINE
  5
45C
330
1F
100
AcDbEntity
  8
Sichtbare_Kanten_TC_020513_DIN_
  6
Continuous
 62
     7
100
AcDbPolyline
 90
        2
 70
     0
 43
0.5
 10
52.8814235699856
 20
117.3654610172913
 10
52.34376865497819
 20
117.3654610172913
  0
LWPOLYLINE
  5
45D
330
1F
100
AcDbEntity
  8
Sichtbare_Kanten_TC_020513_DIN_
  6
Continuous
 62
     7
100
AcDbPolyline
 90
        2
 70
     0
 43
0.5
 10
54.78142356998558
 20
117.3654610172913
 10
54.54743499856977
 20
117.3654610172913
  0
LWPOLYLINE
  5
45E
330
1F
100
AcDbEntity
  8
Sichtbare_Kanten_TC_020513_DIN_
  6
Continuous
 62
     7
100
AcDbPolyline
 90
        2
 70
     0
 43
0.5
 10
70.58134560223579
 20
146.1807385698843
 10
69.2592104955034
 20
146.1807385698843
  0
LWPOLYLINE
  5
45F
330
1F
100
AcDbEntity
  8
Sichtbare_Kanten_TC_020513_DIN_
  6
Continuous
 62
     7
100
AcDbPolyline
 90
        2
 70
     0
 43
0.5
 10
69.2592104955034
 20
144.7807385698843
 10
70.58134560223579
 20
144.7807385698843
  0
LWPOLYLINE
  5
460
330
1F
100
AcDbEntity
  8
Sichtbare_Kanten_TC_020513_DIN_
  6
Continuous
 62
     7
100
AcDbPolyline
 90
        2
 70
     0
 43
0.5
 10
72.51319725481397
 20
144.7807385698843
 10
70.58134560223579
 20
144.7807385698843
  0
LWPOLYLINE
  5
461
330
1F
100
AcDbEntity
  8
Sichtbare_Kanten_TC_020513_DIN_
  6
Continuous
 62
     7
100
AcDbPolyline
 90
        2
 70
     0
 43
0.5
 10
70.58134560223579
 20
146.1807385698843
 10
72.51319725481397
 20
146.1807385698843
  0
LWPOLYLINE
  5
462
330
1F
100
AcDbEntity
  8
Sichtbare_Kanten_TC_020513_DIN_
  6
Continuous
 62
     7
100
AcDbPolyline
 90
        2
 70
     0
 43
0.5
 10
54.8814235699856
 20
152.6031159322993
 10
56.28142356998558
 20
152.6031159322993
  0
LWPOLYLINE
  5
463
330
1F
100
AcDbEntity
  8
Sichtbare_Kanten_TC_020513_DIN_
  6
Continuous
 62
     7
100
AcDbPolyline
 90
        2
 70
     0
 43
0.5
 10
54.8814235699856
 20
117.6031159322983
 10
56.28142356998558
 20
117.6031159322983
  0
LWPOLYLINE
  5
464
330
1F
100
AcDbEntity
  8
Sichtbare_Kanten_TC_020513_DIN_
  6
Continuous
 62
     7
100
AcDbPolyline
 90
        2
 70
     0
 43
0.5
 10
56.28142356998558
 20
117.4654610172913
 10
56.28142356998558
 20
117.6031159322983
  0
LWPOLYLINE
  5
465
330
1F
100
AcDbEntity
  8
Sichtbare_Kanten_TC_020513_DIN_
  6
Continuous
 62
     7
100
AcDbPolyline
 90
        2
 70
     0
 43
0.5
 10
56.28142356998558
 20
125.8187142475703
 10
56.28142356998558
 20
117.6031159322983
  0
LWPOLYLINE
  5
466
330
1F
100
AcDbEntity
  8
Sichtbare_Kanten_TC_020513_DIN_
  6
Continuous
 62
     7
100
AcDbPolyline
 90
        2
 70
     0
 43
0.5
 10
56.28142356998558
 20
125.8187142475703
 10
56.28142356998558
 20
130.6466938036723
  0
LWPOLYLINE
  5
467
330
1F
100
AcDbEntity
  8
Sichtbare_Kanten_TC_020513_DIN_
  6
Continuous
 62
     7
100
AcDbPolyline
 90
        2
 70
     0
 43
0.5
 10
56.28142356998558
 20
130.6466938036723
 10
56.28142356998558
 20
130.9952656953913
  0
LWPOLYLINE
  5
468
330
1F
100
AcDbEntity
  8
Sichtbare_Kanten_TC_020513_DIN_
  6
Continuous
 62
     7
100
AcDbPolyline
 90
        2
 70
     0
 43
0.5
 10
56.28142356998558
 20
130.9952656953913
 10
56.28142356998558
 20
134.9641012672933
  0
LWPOLYLINE
  5
469
330
1F
100
AcDbEntity
  8
Sichtbare_Kanten_TC_020513_DIN_
  6
Continuous
 62
     7
100
AcDbPolyline
 90
        2
 70
     0
 43
0.5
 10
56.28142356998558
 20
145.3993575164903
 10
56.28142356998558
 20
147.4465772010893
  0
LWPOLYLINE
  5
46A
330
1F
100
AcDbEntity
  8
Sichtbare_Kanten_TC_020513_DIN_
  6
Continuous
 62
     7
100
AcDbPolyline
 90
        2
 70
     0
 43
0.5
 10
56.28142356998558
 20
152.6031159322993
 10
56.28142356998558
 20
147.4465772010893
  0
LWPOLYLINE
  5
46B
330
1F
100
AcDbEntity
  8
Sichtbare_Kanten_TC_020513_DIN_
  6
Continuous
 62
     7
100
AcDbPolyline
 90
        2
 70
     0
 43
0.5
 10
54.8814235699856
 20
147.4465772010893
 10
54.8814235699856
 20
152.6031159322993
  0
LWPOLYLINE
  5
46C
330
1F
100
AcDbEntity
  8
Sichtbare_Kanten_TC_020513_DIN_
  6
Continuous
 62
     7
100
AcDbPolyline
 90
        2
 70
     0
 43
0.5
 10
54.8814235699856
 20
147.4465772010893
 10
54.8814235699856
 20
145.3993575164903
  0
LWPOLYLINE
  5
46D
330
1F
100
AcDbEntity
  8
Sichtbare_Kanten_TC_020513_DIN_
  6
Continuous
 62
     7
100
AcDbPolyline
 90
        2
 70
     0
 43
0.5
 10
54.8814235699856
 20
134.9641012672933
 10
54.8814235699856
 20
130.9952656953913
  0
LWPOLYLINE
  5
46E
330
1F
100
AcDbEntity
  8
Sichtbare_Kanten_TC_020513_DIN_
  6
Continuous
 62
     7
100
AcDbPolyline
 90
        2
 70
     0
 43
0.5
 10
54.8814235699856
 20
130.9952656953913
 10
54.8814235699856
 20
130.6466938036723
  0
LWPOLYLINE
  5
46F
330
1F
100
AcDbEntity
  8
Sichtbare_Kanten_TC_020513_DIN_
  6
Continuous
 62
     7
100
AcDbPolyline
 90
        2
 70
     0
 43
0.5
 10
54.8814235699856
 20
130.6466938036723
 10
54.8814235699856
 20
125.8187142475703
  0
LWPOLYLINE
  5
470
330
1F
100
AcDbEntity
  8
Sichtbare_Kanten_TC_020513_DIN_
  6
Continuous
 62
     7
100
AcDbPolyline
 90
        2
 70
     0
 43
0.5
 10
54.8814235699856
 20
117.6031159322983
 10
54.8814235699856
 20
125.8187142475703
  0
LWPOLYLINE
  5
471
330
1F
100
AcDbEntity
  8
Sichtbare_Kanten_TC_020513_DIN_
  6
Continuous
 62
     7
100
AcDbPolyline
 90
        2
 70
     0
 43
0.5
 10
54.8814235699856
 20
117.6031159322983
 10
54.8814235699856
 20
117.4654610172913
  0
LWPOLYLINE
  5
472
330
1F
100
AcDbEntity
  8
Sichtbare_Kanten_TC_020513_DIN_
  6
Continuous
 62
     7
100
AcDbPolyline
 90
        2
 70
     0
 43
0.5
 10
67.75794079440658
 20
133.4039242387963
 10
67.38954232914858
 20
134.7788060285693
  0
LWPOLYLINE
  5
473
330
1F
100
AcDbEntity
  8
Sichtbare_Kanten_TC_020513_DIN_
  6
Continuous
 62
     7
100
AcDbPolyline
 90
        2
 70
     0
 43
0.5
 10
67.14806087257637
 20
134.9641012672933
 10
57.68142356998555
 20
134.9641012672933
  0
LWPOLYLINE
  5
474
330
1F
100
AcDbEntity
  8
Sichtbare_Kanten_TC_020513_DIN_
  6
Continuous
 62
     7
100
AcDbPolyline
 90
        2
 70
     0
 43
0.5
 10
57.68142356998555
 20
144.9641012672933
 10
59.64806087257637
 20
144.9641012672933
  0
LWPOLYLINE
  5
475
330
1F
100
AcDbEntity
  8
Sichtbare_Kanten_TC_020513_DIN_
  6
Continuous
 62
     7
100
AcDbPolyline
 90
        2
 70
     0
 43
0.5
 10
60.41410531569528
 20
144.6068888769803
 10
61.49283100812187
 20
143.3213136576073
  0
LWPOLYLINE
  5
476
330
1F
100
AcDbEntity
  8
Sichtbare_Kanten_TC_020513_DIN_
  6
Continuous
 62
     7
100
AcDbPolyline
 90
        2
 70
     0
 43
0.5
 10
62.2588754512409
 20
142.9641012672933
 10
67.14806087257637
 20
142.9641012672933
  0
LWPOLYLINE
  5
477
330
1F
100
AcDbEntity
  8
Sichtbare_Kanten_TC_020513_DIN_
  6
Continuous
 62
     7
100
AcDbPolyline
 90
        2
 70
     0
 43
0.5
 10
105.7692059255111
 20
132.2205931059223
 10
104.1406602727091
 20
126.7122219356733
  0
LWPOLYLINE
  5
478
330
1F
100
AcDbEntity
  8
Sichtbare_Kanten_TC_020513_DIN_
  6
Continuous
 62
     7
100
AcDbPolyline
 90
        2
 70
     0
 43
0.5
 10
121.9190784849931
 20
117.3654610172913
 10
121.9190784849931
 20
115.9654610172913
  0
LWPOLYLINE
  5
479
330
1F
100
AcDbEntity
  8
Sichtbare_Kanten_TC_020513_DIN_
  6
Continuous
 62
     7
100
AcDbPolyline
 90
        2
 70
     0
 43
0.5
 10
121.4190784849931
 20
115.9654610172913
 10
121.9190784849931
 20
115.9654610172913
  0
LWPOLYLINE
  5
47A
330
1F
100
AcDbEntity
  8
Sichtbare_Kanten_TC_020513_DIN_
  6
Continuous
 62
     7
100
AcDbPolyline
 90
        2
 70
     0
 43
0.5
 10
121.4190784849931
 20
115.9654610172913
 10
120.8814235699861
 20
115.9654610172913
  0
LWPOLYLINE
  5
47B
330
1F
100
AcDbEntity
  8
Sichtbare_Kanten_TC_020513_DIN_
  6
Continuous
 62
     7
100
AcDbPolyline
 90
        2
 70
     0
 43
0.5
 10
121.9190784849931
 20
117.3654610172913
 10
121.4190784849931
 20
117.3654610172913
  0
LWPOLYLINE
  5
47C
330
1F
100
AcDbEntity
  8
Sichtbare_Kanten_TC_020513_DIN_
  6
Continuous
 62
     7
100
AcDbPolyline
 90
        2
 70
     0
 43
0.5
 10
120.8814235699861
 20
117.3654610172913
 10
121.4190784849931
 20
117.3654610172913
  0
LWPOLYLINE
  5
47D
330
1F
100
AcDbEntity
  8
Sichtbare_Kanten_TC_020513_DIN_
  6
Continuous
 62
     7
100
AcDbPolyline
 90
        2
 70
     0
 43
0.5
 10
118.9814235699851
 20
117.3654610172913
 10
119.2154121414011
 20
117.3654610172913
  0
LWPOLYLINE
  5
47E
330
1F
100
AcDbEntity
  8
Sichtbare_Kanten_TC_020513_DIN_
  6
Continuous
 62
     7
100
AcDbPolyline
 90
        2
 70
     0
 43
0.5
 10
118.8814235699861
 20
152.6031159322993
 10
117.4814235699861
 20
152.6031159322993
  0
LWPOLYLINE
  5
47F
330
1F
100
AcDbEntity
  8
Sichtbare_Kanten_TC_020513_DIN_
  6
Continuous
 62
     7
100
AcDbPolyline
 90
        2
 70
     0
 43
0.5
 10
118.8814235699861
 20
117.6031159322983
 10
117.4814235699861
 20
117.6031159322983
  0
LWPOLYLINE
  5
480
330
1F
100
AcDbEntity
  8
Sichtbare_Kanten_TC_020513_DIN_
  6
Continuous
 62
     7
100
AcDbPolyline
 90
        2
 70
     0
 43
0.5
 10
117.4814235699861
 20
130.9952656953913
 10
117.4814235699861
 20
134.9641012672933
  0
LWPOLYLINE
  5
481
330
1F
100
AcDbEntity
  8
Sichtbare_Kanten_TC_020513_DIN_
  6
Continuous
 62
     7
100
AcDbPolyline
 90
        2
 70
     0
 43
0.5
 10
117.4814235699861
 20
130.6466938036723
 10
117.4814235699861
 20
130.9952656953913
  0
LWPOLYLINE
  5
482
330
1F
100
AcDbEntity
  8
Sichtbare_Kanten_TC_020513_DIN_
  6
Continuous
 62
     7
100
AcDbPolyline
 90
        2
 70
     0
 43
0.5
 10
117.4814235699861
 20
125.8187142475703
 10
117.4814235699861
 20
130.6466938036723
  0
LWPOLYLINE
  5
483
330
1F
100
AcDbEntity
  8
Sichtbare_Kanten_TC_020513_DIN_
  6
Continuous
 62
     7
100
AcDbPolyline
 90
        2
 70
     0
 43
0.5
 10
117.4814235699861
 20
125.8187142475703
 10
117.4814235699861
 20
117.6031159322983
  0
LWPOLYLINE
  5
484
330
1F
100
AcDbEntity
  8
Sichtbare_Kanten_TC_020513_DIN_
  6
Continuous
 62
     7
100
AcDbPolyline
 90
        2
 70
     0
 43
0.5
 10
117.4814235699861
 20
117.4654610172913
 10
117.4814235699861
 20
117.6031159322983
  0
LWPOLYLINE
  5
485
330
1F
100
AcDbEntity
  8
Sichtbare_Kanten_TC_020513_DIN_
  6
Continuous
 62
     7
100
AcDbPolyline
 90
        2
 70
     0
 43
0.5
 10
117.4814235699861
 20
152.6031159322993
 10
117.4814235699861
 20
147.4465772010893
  0
LWPOLYLINE
  5
486
330
1F
100
AcDbEntity
  8
Sichtbare_Kanten_TC_020513_DIN_
  6
Continuous
 62
     7
100
AcDbPolyline
 90
        2
 70
     0
 43
0.5
 10
118.8814235699861
 20
147.4465772010893
 10
118.8814235699861
 20
152.6031159322993
  0
LWPOLYLINE
  5
487
330
1F
100
AcDbEntity
  8
Sichtbare_Kanten_TC_020513_DIN_
  6
Continuous
 62
     7
100
AcDbPolyline
 90
        2
 70
     0
 43
0.5
 10
118.8814235699861
 20
117.6031159322983
 10
118.8814235699861
 20
117.4654610172913
  0
LWPOLYLINE
  5
488
330
1F
100
AcDbEntity
  8
Sichtbare_Kanten_TC_020513_DIN_
  6
Continuous
 62
     7
100
AcDbPolyline
 90
        2
 70
     0
 43
0.5
 10
118.8814235699861
 20
117.6031159322983
 10
118.8814235699861
 20
125.8187142475703
  0
LWPOLYLINE
  5
489
330
1F
100
AcDbEntity
  8
Sichtbare_Kanten_TC_020513_DIN_
  6
Continuous
 62
     7
100
AcDbPolyline
 90
        2
 70
     0
 43
0.5
 10
118.8814235699861
 20
130.6466938036723
 10
118.8814235699861
 20
125.8187142475703
  0
LWPOLYLINE
  5
48A
330
1F
100
AcDbEntity
  8
Sichtbare_Kanten_TC_020513_DIN_
  6
Continuous
 62
     7
100
AcDbPolyline
 90
        2
 70
     0
 43
0.5
 10
118.8814235699861
 20
130.9952656953913
 10
118.8814235699861
 20
130.6466938036723
  0
LWPOLYLINE
  5
48B
330
1F
100
AcDbEntity
  8
Sichtbare_Kanten_TC_020513_DIN_
  6
Continuous
 62
     7
100
AcDbPolyline
 90
        2
 70
     0
 43
0.5
 10
118.8814235699861
 20
134.9641012672933
 10
118.8814235699861
 20
130.9952656953913
  0
LWPOLYLINE
  5
48C
330
1F
100
AcDbEntity
  8
Sichtbare_Kanten_TC_020513_DIN_
  6
Continuous
 62
     7
100
AcDbPolyline
 90
        2
 70
     0
 43
0.5
 10
117.4814235699861
 20
145.3993575164903
 10
117.4814235699861
 20
147.4465772010893
  0
LWPOLYLINE
  5
48D
330
1F
100
AcDbEntity
  8
Sichtbare_Kanten_TC_020513_DIN_
  6
Continuous
 62
     7
100
AcDbPolyline
 90
        2
 70
     0
 43
0.5
 10
118.8814235699861
 20
147.4465772010893
 10
118.8814235699861
 20
145.3993575164903
  0
LWPOLYLINE
  5
48E
330
1F
100
AcDbEntity
  8
Sichtbare_Kanten_TC_020513_DIN_
  6
Continuous
 62
     7
100
AcDbPolyline
 90
        2
 70
     0
 43
0.5
 10
103.1815015377351
 20
146.1807385698843
 10
104.5036366444681
 20
146.1807385698843
  0
LWPOLYLINE
  5
48F
330
1F
100
AcDbEntity
  8
Sichtbare_Kanten_TC_020513_DIN_
  6
Continuous
 62
     7
100
AcDbPolyline
 90
        2
 70
     0
 43
0.5
 10
103.1815015377351
 20
146.1807385698843
 10
101.2496498851571
 20
146.1807385698843
  0
LWPOLYLINE
  5
490
330
1F
100
AcDbEntity
  8
Sichtbare_Kanten_TC_020513_DIN_
  6
Continuous
 62
     7
100
AcDbPolyline
 90
        2
 70
     0
 43
0.5
 10
104.1406602727091
 20
127.3038875021103
 10
105.7692059255111
 20
132.8122586723593
  0
LWPOLYLINE
  5
491
330
1F
100
AcDbEntity
  8
Sichtbare_Kanten_TC_020513_DIN_
  6
Continuous
 62
     7
100
AcDbPolyline
 90
        2
 70
     0
 43
0.5
 10
101.2496498851571
 20
144.7807385698843
 10
103.1815015377351
 20
144.7807385698843
  0
LWPOLYLINE
  5
492
330
1F
100
AcDbEntity
  8
Sichtbare_Kanten_TC_020513_DIN_
  6
Continuous
 62
     7
100
AcDbPolyline
 90
        2
 70
     0
 43
0.5
 10
104.5036366444681
 20
144.7807385698843
 10
103.1815015377351
 20
144.7807385698843
  0
LWPOLYLINE
  5
493
330
1F
100
AcDbEntity
  8
Sichtbare_Kanten_TC_020513_DIN_
  6
Continuous
 62
     7
100
AcDbPolyline
 90
        2
 70
     0
 43
0.5
 10
111.5039716887301
 20
142.9641012672933
 10
106.6147862673951
 20
142.9641012672933
  0
LWPOLYLINE
  5
494
330
1F
100
AcDbEntity
  8
Sichtbare_Kanten_TC_020513_DIN_
  6
Continuous
 62
     7
100
AcDbPolyline
 90
        2
 70
     0
 43
0.5
 10
113.3487418242761
 20
144.6068888769803
 10
112.2700161318491
 20
143.3213136576073
  0
LWPOLYLINE
  5
495
330
1F
100
AcDbEntity
  8
Sichtbare_Kanten_TC_020513_DIN_
  6
Continuous
 62
     7
100
AcDbPolyline
 90
        2
 70
     0
 43
0.5
 10
116.081423569986
 20
144.9641012672933
 10
114.1147862673951
 20
144.9641012672933
  0
LWPOLYLINE
  5
496
330
1F
100
AcDbEntity
  8
Sichtbare_Kanten_TC_020513_DIN_
  6
Continuous
 62
     7
100
AcDbPolyline
 90
        2
 70
     0
 43
0.5
 10
106.6147862673951
 20
134.9641012672933
 10
116.081423569986
 20
134.9641012672933
  0
LWPOLYLINE
  5
497
330
1F
100
AcDbEntity
  8
Sichtbare_Kanten_TC_020513_DIN_
  6
Continuous
 62
     7
100
AcDbPolyline
 90
        2
 70
     0
 43
0.5
 10
106.0049063455651
 20
133.4039242387963
 10
106.3733048108231
 20
134.7788060285693
  0
LWPOLYLINE
  5
498
330
1F
100
AcDbEntity
  8
Sichtbare_Kanten_TC_020513_DIN_
  6
Continuous
 62
     7
100
AcDbPolyline
 90
        2
 70
     0
 43
0.5
 10
86.88142356998554
 20
138.6031159322983
 10
86.13142356998554
 20
139.6388358080893
  0
LWPOLYLINE
  5
499
330
1F
100
AcDbEntity
  8
Sichtbare_Kanten_TC_020513_DIN_
  6
Continuous
 62
     7
100
AcDbPolyline
 90
        2
 70
     0
 43
0.5
 10
86.13142356998554
 20
139.6388358080893
 10
86.13142356998554
 20
136.9785965680563
  0
LWPOLYLINE
  5
49A
330
1F
100
AcDbEntity
  8
Sichtbare_Kanten_TC_020513_DIN_
  6
Continuous
 62
     7
100
AcDbPolyline
 90
        2
 70
     0
 43
0.5
 10
85.63142356998554
 20
136.9785965680563
 10
85.63142356998554
 20
140.4103276042333
  0
LWPOLYLINE
  5
49B
330
1F
100
AcDbEntity
  8
Sichtbare_Kanten_TC_020513_DIN_
  6
Continuous
 62
     7
100
AcDbPolyline
 90
        2
 70
     0
 43
0.5
 10
87.63142356998554
 20
139.6388358080893
 10
86.88142356998554
 20
138.6031159322983
  0
LWPOLYLINE
  5
49C
330
1F
100
AcDbEntity
  8
Sichtbare_Kanten_TC_020513_DIN_
  6
Continuous
 62
     7
100
AcDbPolyline
 90
        2
 70
     0
 43
0.5
 10
87.63142356998554
 20
135.7959042603643
 10
87.63142356998554
 20
139.6388358080893
  0
LWPOLYLINE
  5
49D
330
1F
100
AcDbEntity
  8
Sichtbare_Kanten_TC_020513_DIN_
  6
Continuous
 62
     7
100
AcDbPolyline
 90
        2
 70
     0
 43
0.5
 10
88.13142356998554
 20
140.4103276042333
 10
88.13142356998554
 20
135.7959042603643
  0
LWPOLYLINE
  5
49E
330
1F
100
AcDbEntity
  8
Sichtbare_Kanten_TC_020513_DIN_
  6
Continuous
 62
     7
100
AcDbPolyline
 90
        2
 70
     0
 43
0.5
 10
86.88142356998554
 20
139.4556196073923
 10
87.67893766365859
 20
140.5569545381123
  0
LWPOLYLINE
  5
49F
330
1F
100
AcDbEntity
  8
Sichtbare_Kanten_TC_020513_DIN_
  6
Continuous
 62
     7
100
AcDbPolyline
 90
        2
 70
     0
 43
0.5
 10
86.08390947631256
 20
140.5569545381123
 10
86.88142356998554
 20
139.4556196073923
  0
LWPOLYLINE
  5
4A0
330
1F
100
AcDbEntity
  8
Sichtbare_Kanten_TC_020513_DIN_
  6
Continuous
 62
     7
100
AcDbPolyline
 90
        2
 70
     0
 43
0.5
 10
85.08142356998559
 20
139.8045583734643
 10
85.08142356998559
 20
136.5460644722833
  0
LWPOLYLINE
  5
4A1
330
1F
100
AcDbEntity
  8
Sichtbare_Kanten_TC_020513_DIN_
  6
Continuous
 62
     7
100
AcDbPolyline
 90
        2
 70
     0
 43
0.5
 10
85.08142356998559
 20
136.5460644722833
 10
87.00635418335798
 20
135.4355275799533
  0
LWPOLYLINE
  5
4A2
330
1F
100
AcDbEntity
  8
Sichtbare_Kanten_TC_020513_DIN_
  6
Continuous
 62
     7
100
AcDbPolyline
 90
        2
 70
     0
 43
0.5
 10
84.58142356998559
 20
136.4016734911333
 10
84.58142356998559
 20
139.8045583734643
  0
LWPOLYLINE
  5
4A3
330
1F
100
AcDbEntity
  8
Sichtbare_Kanten_TC_020513_DIN_
  6
Continuous
 62
     7
100
AcDbPolyline
 90
        2
 70
     0
 43
0.5
 10
86.75649295661316
 20
135.0024347869293
 10
84.7064929566132
 20
136.1851270946213
  0
LWPOLYLINE
  5
4A4
330
1F
100
AcDbEntity
  8
Sichtbare_Kanten_TC_020513_DIN_
  6
Continuous
 62
     7
100
AcDbPolyline
 90
        2
 70
     0
 43
0.5
 10
80.38142356998554
 20
138.1031159322993
 10
86.88142356998554
 20
141.8531159322993
  0
LWPOLYLINE
  5
4A5
330
1F
100
AcDbEntity
  8
Sichtbare_Kanten_TC_020513_DIN_
  6
Continuous
 62
     7
100
AcDbPolyline
 90
        2
 70
     0
 43
0.5
 10
86.88142356998554
 20
134.3531159322993
 10
80.38142356998554
 20
138.1031159322993
  0
LWPOLYLINE
  5
4A6
330
1F
100
AcDbEntity
  8
Sichtbare_Kanten_TC_020513_DIN_
  6
Continuous
 62
     7
100
AcDbPolyline
 90
        2
 70
     0
 43
0.5
 10
86.88142356998554
 20
134.6417376826793
 10
92.88114586932551
 20
138.1031159322993
  0
LWPOLYLINE
  5
4A7
330
1F
100
AcDbEntity
  8
Sichtbare_Kanten_TC_020513_DIN_
  6
Continuous
 62
     7
100
AcDbPolyline
 90
        2
 70
     0
 43
0.5
 10
80.88170127064569
 20
138.1031159322993
 10
86.88142356998554
 20
134.6417376826793
  0
LWPOLYLINE
  5
4A8
330
1F
100
AcDbEntity
  8
Sichtbare_Kanten_TC_020513_DIN_
  6
Continuous
 62
     7
100
AcDbPolyline
 90
        2
 70
     0
 43
0.5
 10
93.38142356998554
 20
138.1031159322993
 10
86.88142356998554
 20
134.3531159322993
  0
LWPOLYLINE
  5
4A9
330
1F
100
AcDbEntity
  8
Sichtbare_Kanten_TC_020513_DIN_
  6
Continuous
 62
     7
100
AcDbPolyline
 90
        2
 70
     0
 43
0.5
 10
86.88142356998554
 20
141.8531159322993
 10
93.38142356998554
 20
138.1031159322993
  0
LWPOLYLINE
  5
4AA
330
1F
100
AcDbEntity
  8
Sichtbare_Kanten_TC_020513_DIN_
  6
Continuous
 62
     7
100
AcDbPolyline
 90
        2
 70
     0
 43
0.5
 10
86.88142356998554
 20
141.5644941819183
 10
80.88170127064569
 20
138.1031159322993
  0
LWPOLYLINE
  5
4AB
330
1F
100
AcDbEntity
  8
Sichtbare_Kanten_TC_020513_DIN_
  6
Continuous
 62
     7
100
AcDbPolyline
 90
        2
 70
     0
 43
0.5
 10
92.88114586932551
 20
138.1031159322993
 10
86.88142356998554
 20
141.5644941819183
  0
LWPOLYLINE
  5
4AC
330
1F
100
AcDbEntity
  8
Sichtbare_Kanten_TC_020513_DIN_
  6
Continuous
 62
     7
100
AcDbPolyline
 90
        2
 70
     0
 43
0.5
 10
84.08142356998559
 20
139.2276352965413
 10
84.08142356998559
 20
136.9785965680563
  0
LWPOLYLINE
  5
4AD
330
1F
100
AcDbEntity
  8
Sichtbare_Kanten_TC_020513_DIN_
  6
Continuous
 62
     7
100
AcDbPolyline
 90
        2
 70
     0
 43
0.5
 10
83.58142356998559
 20
136.9785965680563
 10
83.58142356998559
 20
139.2276352965413
  0
LWPOLYLINE
  5
4AE
330
1F
100
AcDbEntity
  8
Sichtbare_Kanten_TC_020513_DIN_
  6
Continuous
 62
     7
100
AcDbPolyline
 90
        2
 70
     0
 43
0.5
 10
89.00635418335798
 20
140.0499509238223
 10
90.00635418335798
 20
139.4730278468993
  0
LWPOLYLINE
  5
4AF
330
1F
100
AcDbEntity
  8
Sichtbare_Kanten_TC_020513_DIN_
  6
Continuous
 62
     7
100
AcDbPolyline
 90
        2
 70
     0
 43
0.5
 10
89.75649295661316
 20
139.0399350538753
 10
89.13142356998554
 20
139.4005520076983
  0
LWPOLYLINE
  5
4B0
330
1F
100
AcDbEntity
  8
Sichtbare_Kanten_TC_020513_DIN_
  6
Continuous
 62
     7
100
AcDbPolyline
 90
        2
 70
     0
 43
0.5
 10
89.13142356998554
 20
139.4005520076983
 10
89.13142356998554
 20
138.3531159322983
  0
LWPOLYLINE
  5
4B1
330
1F
100
AcDbEntity
  8
Sichtbare_Kanten_TC_020513_DIN_
  6
Continuous
 62
     7
100
AcDbPolyline
 90
        2
 70
     0
 43
0.5
 10
89.13142356998554
 20
138.3531159322983
 10
89.88142356998554
 20
138.3531159322993
  0
LWPOLYLINE
  5
4B2
330
1F
100
AcDbEntity
  8
Sichtbare_Kanten_TC_020513_DIN_
  6
Continuous
 62
     7
100
AcDbPolyline
 90
        2
 70
     0
 43
0.5
 10
88.63142356998554
 20
136.3728273372873
 10
88.63142356998554
 20
139.8334045273103
  0
LWPOLYLINE
  5
4B3
330
1F
100
AcDbEntity
  8
Sichtbare_Kanten_TC_020513_DIN_
  6
Continuous
 62
     7
100
AcDbPolyline
 90
        2
 70
     0
 43
0.5
 10
90.00635418335798
 20
136.7332040176983
 10
89.00635418335798
 20
136.1562809407753
  0
LWPOLYLINE
  5
4B4
330
1F
100
AcDbEntity
  8
Sichtbare_Kanten_TC_020513_DIN_
  6
Continuous
 62
     7
100
AcDbPolyline
 90
        2
 70
     0
 43
0.5
 10
89.13142356998554
 20
136.8056798568993
 10
89.75649295661316
 20
137.1662968107223
  0
LWPOLYLINE
  5
4B5
330
1F
100
AcDbEntity
  8
Sichtbare_Kanten_TC_020513_DIN_
  6
Continuous
 62
     7
100
AcDbPolyline
 90
        2
 70
     0
 43
0.5
 10
89.13142356998554
 20
137.8531159322993
 10
89.13142356998554
 20
136.8056798568993
  0
LWPOLYLINE
  5
4B6
330
1F
100
AcDbEntity
  8
Sichtbare_Kanten_TC_020513_DIN_
  6
Continuous
 62
     7
100
AcDbPolyline
 90
        2
 70
     0
 43
0.5
 10
89.88142356998554
 20
137.8531159322993
 10
89.13142356998554
 20
137.8531159322993
  0
LWPOLYLINE
  5
4B7
330
1F
100
AcDbEntity
  8
Skizziergeometrie_TC_020513_DIN_
  6
DASHED
 62
     7
100
AcDbPolyline
 90
        2
 70
     0
 43
0.35
 10
258.0789771848972
 20
108.6553770034753
 42
0.04080772471812
 10
258.7287174628252
 20
116.6031159322983
 42
0.04080772471812
  0
LWPOLYLINE
  5
4B8
330
1F
100
AcDbEntity
  8
Skizziergeometrie_TC_020513_DIN_
  6
DASHED
 62
     7
100
AcDbPolyline
 90
        2
 70
     0
 43
0.35
 10
258.7287174628252
 20
116.6031159322983
 42
0.25263790317648
 10
236.6508994212391
 20
157.5088568201753
 42
0.25263790317648
  0
LWPOLYLINE
  5
4B9
330
1F
100
AcDbEntity
  8
Sichtbare_Kanten_TC_020513_DIN_
  6
Continuous
 62
     7
100
AcDbPolyline
 90
        2
 70
     0
 43
0.5
 10
236.5571125761011
 20
116.7864786297083
 42
0.4142135623731
 10
235.0571125761011
 20
115.2864786297083
 42
0.4142135623731
  0
LWPOLYLINE
  5
4BA
330
1F
100
AcDbEntity
  8
Sichtbare_Kanten_TC_020513_DIN_
  6
Continuous
 62
     7
100
AcDbPolyline
 90
        2
 70
     0
 43
0.5
 10
236.5571125761011
 20
115.3864786297083
 42
0.4142135623731
 10
236.4571125761011
 20
115.2864786297083
 42
0.4142135623731
  0
LWPOLYLINE
  5
4BB
330
1F
100
AcDbEntity
  8
Sichtbare_Kanten_TC_020513_DIN_
  6
Continuous
 62
     7
100
AcDbPolyline
 90
        2
 70
     0
 43
0.5
 10
236.5947674911041
 20
120.6031159322983
 42
0.4142135623731
 10
235.5947674911041
 20
121.6031159322983
 42
0.4142135623731
  0
LWPOLYLINE
  5
4BC
330
1F
100
AcDbEntity
  8
Sichtbare_Kanten_TC_020513_DIN_
  6
Continuous
 62
     7
100
AcDbPolyline
 90
        2
 70
     0
 43
0.5
 10
224.7947674911041
 20
121.6031159322983
 42
0.28730243078695
 10
224.3449202077081
 20
121.3213759186013
 42
0.28730243078695
  0
LWPOLYLINE
  5
4BD
330
1F
100
AcDbEntity
  8
Sichtbare_Kanten_TC_020513_DIN_
  6
Continuous
 62
     7
100
AcDbPolyline
 90
        2
 70
     0
 43
0.5
 10
206.1377076905971
 20
113.6284242228023
 42
0.37600288377065
 10
224.3449202077081
 20
121.3213759186013
 42
0.37600288377065
  0
LWPOLYLINE
  5
4BE
330
1F
100
AcDbEntity
  8
Sichtbare_Kanten_TC_020513_DIN_
  6
Continuous
 62
     7
100
AcDbPolyline
 90
        2
 70
     0
 43
0.5
 10
205.7947674911041
 20
114.1031159322993
 42
0.32343613623243
 10
206.1377076905971
 20
113.6284242228023
 42
0.32343613623243
  0
LWPOLYLINE
  5
4BF
330
1F
100
AcDbEntity
  8
Sichtbare_Kanten_TC_020513_DIN_
  6
Continuous
 62
     7
100
AcDbPolyline
 90
        2
 70
     0
 43
0.5
 10
215.862509595606
 20
133.8950916458773
 42
0.55426459289412
 10
205.7947674911041
 20
127.6031159322983
 42
0.55426459289412
  0
LWPOLYLINE
  5
4C0
330
1F
100
AcDbEntity
  8
Sichtbare_Kanten_TC_020513_DIN_
  6
Continuous
 62
     7
100
AcDbPolyline
 90
        2
 70
     0
 43
0.5
 10
222.4119080926431
 20
128.7815281822063
 42
0.10501060713036
 10
215.862509595606
 20
133.8950916458773
 42
0.10501060713036
  0
LWPOLYLINE
  5
4C1
330
1F
100
AcDbEntity
  8
Sichtbare_Kanten_TC_020513_DIN_
  6
Continuous
 62
     7
100
AcDbPolyline
 90
        2
 70
     0
 43
0.5
 10
222.4119080926431
 20
128.7815281822063
 42
0.22156182771658
 10
222.7947674911041
 20
128.6031159322983
 42
0.22156182771658
  0
LWPOLYLINE
  5
4C2
330
1F
100
AcDbEntity
  8
Sichtbare_Kanten_TC_020513_DIN_
  6
Continuous
 62
     7
100
AcDbPolyline
 90
        2
 70
     0
 43
0.5
 10
243.5947674911041
 20
120.6031159322983
 42
0.4142135623731
 10
235.5947674911041
 20
128.6031159322983
 42
0.4142135623731
  0
LWPOLYLINE
  5
4C3
330
1F
100
AcDbEntity
  8
Sichtbare_Kanten_TC_020513_DIN_
  6
Continuous
 62
     7
100
AcDbPolyline
 90
        2
 70
     0
 43
0.5
 10
227.934767491102
 20
80.99311593229879
 42
1.0
 10
197.6547674911021
 20
80.99311593229879
 42
1.0
  0
LWPOLYLINE
  5
4C4
330
1F
100
AcDbEntity
  8
Sichtbare_Kanten_TC_020513_DIN_
  6
Continuous
 62
     7
100
AcDbPolyline
 90
        2
 70
     0
 43
0.5
 10
218.0236454274411
 20
138.8182504629973
 42
0.24469844322906
 10
218.081769446775
 20
139.2763261993133
 42
0.24469844322906
  0
LWPOLYLINE
  5
4C5
330
1F
100
AcDbEntity
  8
Sichtbare_Kanten_TC_020513_DIN_
  6
Continuous
 62
     7
100
AcDbPolyline
 90
        2
 70
     0
 43
0.5
 10
217.0161244382811
 20
142.1620083354263
 42
0.45934868709197
 10
210.616214358863
 20
144.5406159322983
 42
0.45934868709197
  0
LWPOLYLINE
  5
4C6
330
1F
100
AcDbEntity
  8
Sichtbare_Kanten_TC_020513_DIN_
  6
Continuous
 62
     7
100
AcDbPolyline
 90
        2
 70
     0
 43
0.5
 10
208.5344858102771
 20
152.6031159322993
 42
1.29099444873573
 10
210.616214358863
 20
144.5406159322983
 42
1.29099444873573
  0
LWPOLYLINE
  5
4C7
330
1F
100
AcDbEntity
  8
Sichtbare_Kanten_TC_020513_DIN_
  6
Continuous
 62
     7
100
AcDbPolyline
 90
        2
 70
     0
 43
0.5
 10
234.8202130175341
 20
147.4465772010893
 42
0.13830205371533
 10
216.5344858102771
 20
152.6031159322983
 42
0.13830205371533
  0
LWPOLYLINE
  5
4C8
330
1F
100
AcDbEntity
  8
Sichtbare_Kanten_TC_020513_DIN_
  6
Continuous
 62
     7
100
AcDbPolyline
 90
        2
 70
     0
 43
0.5
 10
236.0104679649191
 20
135.3437189229083
 42
0.22928747325024
 10
236.7947674911051
 20
134.9641012672933
 42
0.22928747325024
  0
LWPOLYLINE
  5
4C9
330
1F
100
AcDbEntity
  8
Sichtbare_Kanten_TC_020513_DIN_
  6
Continuous
 62
     7
100
AcDbPolyline
 90
        2
 70
     0
 43
0.5
 10
233.186917254198
 20
138.9133071044913
 42
0.41421356237304
 10
232.4845763189121
 20
138.9952656953913
 42
0.41421356237304
  0
LWPOLYLINE
  5
4CA
330
1F
100
AcDbEntity
  8
Sichtbare_Kanten_TC_020513_DIN_
  6
Continuous
 62
     7
100
AcDbPolyline
 90
        2
 70
     0
 43
0.5
 10
222.3708194296781
 20
130.9952656953913
 42
0.20643458883388
 10
222.182913252825
 20
130.6466938036723
 42
0.20643458883388
  0
LWPOLYLINE
  5
4CB
330
1F
100
AcDbEntity
  8
Sichtbare_Kanten_TC_020513_DIN_
  6
Continuous
 62
     7
100
AcDbPolyline
 90
        2
 70
     0
 43
0.5
 10
54.28142356998558
 20
118.1864786297083
 42
0.4142135623731
 10
55.68142356998555
 20
116.7864786297083
 42
0.4142135623731
  0
LWPOLYLINE
  5
4CC
330
1F
100
AcDbEntity
  8
Sichtbare_Kanten_TC_020513_DIN_
  6
Continuous
 62
     7
100
AcDbPolyline
 90
        2
 70
     0
 43
0.5
 10
52.8814235699856
 20
118.1864786297083
 42
0.4142135623731
 10
55.68142356998555
 20
115.3864786297083
 42
0.4142135623731
  0
LWPOLYLINE
  5
4CD
330
1F
100
AcDbEntity
  8
Sichtbare_Kanten_TC_020513_DIN_
  6
Continuous
 62
     7
100
AcDbPolyline
 90
        2
 70
     0
 43
0.5
 10
76.59806087257635
 20
114.4488237147003
 42
0.4142135623731
 10
77.09806087257635
 20
114.9488237147003
 42
0.4142135623731
  0
LWPOLYLINE
  5
4CE
330
1F
100
AcDbEntity
  8
Sichtbare_Kanten_TC_020513_DIN_
  6
Continuous
 62
     7
100
AcDbPolyline
 90
        2
 70
     0
 43
0.5
 10
118.081423569986
 20
116.7864786297083
 42
0.4142135623731
 10
119.4814235699861
 20
118.1864786297083
 42
0.4142135623731
  0
LWPOLYLINE
  5
4CF
330
1F
100
AcDbEntity
  8
Sichtbare_Kanten_TC_020513_DIN_
  6
Continuous
 62
     7
100
AcDbPolyline
 90
        2
 70
     0
 43
0.5
 10
118.081423569986
 20
115.3864786297083
 42
0.4142135623731
 10
120.8814235699861
 20
118.1864786297083
 42
0.4142135623731
  0
LWPOLYLINE
  5
4D0
330
1F
100
AcDbEntity
  8
Sichtbare_Kanten_TC_020513_DIN_
  6
Continuous
 62
     7
100
AcDbPolyline
 90
        2
 70
     0
 43
0.5
 10
96.66478626739507
 20
114.9488237147003
 42
0.4142135623731
 10
97.16478626739507
 20
114.4488237147003
 42
0.4142135623731
  0
LWPOLYLINE
  5
4D1
330
1F
100
AcDbEntity
  8
Sichtbare_Kanten_TC_020513_DIN_
  6
Continuous
 62
     7
100
AcDbPolyline
 90
        2
 70
     0
 43
0.5
 10
122.8814235699861
 20
131.6031159322983
 42
1.0
 10
121.4814235699861
 20
131.6031159322983
 42
1.0
  0
LWPOLYLINE
  5
4D2
330
1F
100
AcDbEntity
  8
Sichtbare_Kanten_TC_020513_DIN_
  6
Continuous
 62
     7
100
AcDbPolyline
 90
        2
 70
     0
 43
0.5
 10
121.4814235699861
 20
123.6031159322983
 42
1.0
 10
122.8814235699861
 20
123.6031159322983
 42
1.0
  0
LWPOLYLINE
  5
4D3
330
1F
100
AcDbEntity
  8
Sichtbare_Kanten_TC_020513_DIN_
  6
Continuous
 62
     7
100
AcDbPolyline
 90
        2
 70
     0
 43
0.5
 10
50.8814235699856
 20
123.6031159322983
 42
1.0
 10
52.28142356998558
 20
123.6031159322983
 42
1.0
  0
LWPOLYLINE
  5
4D4
330
1F
100
AcDbEntity
  8
Sichtbare_Kanten_TC_020513_DIN_
  6
Continuous
 62
     7
100
AcDbPolyline
 90
        2
 70
     0
 43
0.5
 10
52.28142356998558
 20
131.6031159322983
 42
1.0
 10
50.8814235699856
 20
131.6031159322983
 42
1.0
  0
LWPOLYLINE
  5
4D5
330
1F
100
AcDbEntity
  8
Sichtbare_Kanten_TC_020513_DIN_
  6
Continuous
 62
     7
100
AcDbPolyline
 90
        2
 70
     0
 43
0.5
 10
117.4814235699861
 20
117.4654610172913
 42
0.11797797415303
 10
117.6438949096001
 20
116.7864786297083
 42
0.11797797415303
  0
LWPOLYLINE
  5
4D6
330
1F
100
AcDbEntity
  8
Sichtbare_Kanten_TC_020513_DIN_
  6
Continuous
 62
     7
100
AcDbPolyline
 90
        2
 70
     0
 43
0.5
 10
118.8814235699861
 20
117.4654610172913
 42
0.41421356237014
 10
118.9814235699851
 20
117.3654610172913
 42
0.41421356237014
  0
LWPOLYLINE
  5
4D7
330
1F
100
AcDbEntity
  8
Sichtbare_Kanten_TC_020513_DIN_
  6
Continuous
 62
     7
100
AcDbPolyline
 90
        2
 70
     0
 43
0.5
 10
56.11895223037067
 20
116.7864786297083
 42
0.1179779741531
 10
56.28142356998558
 20
117.4654610172913
 42
0.1179779741531
  0
LWPOLYLINE
  5
4D8
330
1F
100
AcDbEntity
  8
Sichtbare_Kanten_TC_020513_DIN_
  6
Continuous
 62
     7
100
AcDbPolyline
 90
        2
 70
     0
 43
0.5
 10
54.78142356998558
 20
117.3654610172913
 42
0.4142135623731
 10
54.8814235699856
 20
117.4654610172913
 42
0.4142135623731
  0
LWPOLYLINE
  5
4D9
330
1F
100
AcDbEntity
  8
Sichtbare_Kanten_TC_020513_DIN_
  6
Continuous
 62
     7
100
AcDbPolyline
 90
        2
 70
     0
 43
0.5
 10
67.38954232914858
 20
134.7788060285693
 42
0.33945425886296
 10
67.14806087257637
 20
134.9641012672933
 42
0.33945425886296
  0
LWPOLYLINE
  5
4DA
330
1F
100
AcDbEntity
  8
Sichtbare_Kanten_TC_020513_DIN_
  6
Continuous
 62
     7
100
AcDbPolyline
 90
        2
 70
     0
 43
0.5
 10
60.41410531569528
 20
144.6068888769803
 42
0.22169466264284
 10
59.64806087257637
 20
144.9641012672933
 42
0.22169466264284
  0
LWPOLYLINE
  5
4DB
330
1F
100
AcDbEntity
  8
Sichtbare_Kanten_TC_020513_DIN_
  6
Continuous
 62
     7
100
AcDbPolyline
 90
        2
 70
     0
 43
0.5
 10
61.49283100812187
 20
143.3213136576073
 42
0.22169466264306
 10
62.2588754512409
 20
142.9641012672933
 42
0.22169466264306
  0
LWPOLYLINE
  5
4DC
330
1F
100
AcDbEntity
  8
Sichtbare_Kanten_TC_020513_DIN_
  6
Continuous
 62
     7
100
AcDbPolyline
 90
        2
 70
     0
 43
0.5
 10
67.14806087257637
 20
142.9641012672933
 42
0.1932943131769
 10
68.18552184334209
 20
143.3807385698843
 42
0.1932943131769
  0
LWPOLYLINE
  5
4DD
330
1F
100
AcDbEntity
  8
Sichtbare_Kanten_TC_020513_DIN_
  6
Continuous
 62
     7
100
AcDbPolyline
 90
        2
 70
     0
 43
0.5
 10
105.5773252966291
 20
143.3807385698843
 42
0.19329431317694
 10
106.6147862673951
 20
142.9641012672933
 42
0.19329431317694
  0
LWPOLYLINE
  5
4DE
330
1F
100
AcDbEntity
  8
Sichtbare_Kanten_TC_020513_DIN_
  6
Continuous
 62
     7
100
AcDbPolyline
 90
        2
 70
     0
 43
0.5
 10
111.5039716887301
 20
142.9641012672933
 42
0.22169466264305
 10
112.2700161318491
 20
143.3213136576073
 42
0.22169466264305
  0
LWPOLYLINE
  5
4DF
330
1F
100
AcDbEntity
  8
Sichtbare_Kanten_TC_020513_DIN_
  6
Continuous
 62
     7
100
AcDbPolyline
 90
        2
 70
     0
 43
0.5
 10
114.1147862673951
 20
144.9641012672933
 42
0.22169466264285
 10
113.3487418242761
 20
144.6068888769803
 42
0.22169466264285
  0
LWPOLYLINE
  5
4E0
330
1F
100
AcDbEntity
  8
Sichtbare_Kanten_TC_020513_DIN_
  6
Continuous
 62
     7
100
AcDbPolyline
 90
        2
 70
     0
 43
0.5
 10
106.6147862673951
 20
134.9641012672933
 42
0.3394542588629
 10
106.3733048108231
 20
134.7788060285693
 42
0.3394542588629
  0
LWPOLYLINE
  5
4E1
330
1F
100
AcDbEntity
  8
Sichtbare_Kanten_TC_020513_DIN_
  6
Continuous
 62
     7
100
AcDbPolyline
 90
        2
 70
     0
 43
0.5
 10
85.63142356998554
 20
136.9785965680563
 42
1.0
 10
86.13142356998554
 20
136.9785965680563
 42
1.0
  0
LWPOLYLINE
  5
4E2
330
1F
100
AcDbEntity
  8
Sichtbare_Kanten_TC_020513_DIN_
  6
Continuous
 62
     7
100
AcDbPolyline
 90
        2
 70
     0
 43
0.5
 10
86.08390947631256
 20
140.5569545381123
 42
0.72714551713841
 10
85.63142356998554
 20
140.4103276042333
 42
0.72714551713841
  0
LWPOLYLINE
  5
4E3
330
1F
100
AcDbEntity
  8
Sichtbare_Kanten_TC_020513_DIN_
  6
Continuous
 62
     7
100
AcDbPolyline
 90
        2
 70
     0
 43
0.5
 10
87.63142356998554
 20
135.7959042603643
 42
1.0
 10
88.13142356998554
 20
135.7959042603643
 42
1.0
  0
LWPOLYLINE
  5
4E4
330
1F
100
AcDbEntity
  8
Sichtbare_Kanten_TC_020513_DIN_
  6
Continuous
 62
     7
100
AcDbPolyline
 90
        2
 70
     0
 43
0.5
 10
88.13142356998554
 20
140.4103276042333
 42
0.72714551713836
 10
87.67893766365859
 20
140.5569545381123
 42
0.72714551713836
  0
LWPOLYLINE
  5
4E5
330
1F
100
AcDbEntity
  8
Sichtbare_Kanten_TC_020513_DIN_
  6
Continuous
 62
     7
100
AcDbPolyline
 90
        2
 70
     0
 43
0.5
 10
85.08142356998559
 20
139.8045583734643
 42
1.0
 10
84.58142356998559
 20
139.8045583734643
 42
1.0
  0
LWPOLYLINE
  5
4E6
330
1F
100
AcDbEntity
  8
Sichtbare_Kanten_TC_020513_DIN_
  6
Continuous
 62
     7
100
AcDbPolyline
 90
        2
 70
     0
 43
0.5
 10
84.58142356998559
 20
136.4016734911333
 42
0.268035059522
 10
84.7064929566132
 20
136.1851270946213
 42
0.268035059522
  0
LWPOLYLINE
  5
4E7
330
1F
100
AcDbEntity
  8
Sichtbare_Kanten_TC_020513_DIN_
  6
Continuous
 62
     7
100
AcDbPolyline
 90
        2
 70
     0
 43
0.5
 10
86.75649295661316
 20
135.0024347869293
 42
0.99999999999993
 10
87.00635418335798
 20
135.4355275799533
 42
0.99999999999993
  0
LWPOLYLINE
  5
4E8
330
1F
100
AcDbEntity
  8
Sichtbare_Kanten_TC_020513_DIN_
  6
Continuous
 62
     7
100
AcDbPolyline
 90
        2
 70
     0
 43
0.5
 10
84.08142356998559
 20
139.2276352965413
 42
1.0
 10
83.58142356998559
 20
139.2276352965413
 42
1.0
  0
LWPOLYLINE
  5
4E9
330
1F
100
AcDbEntity
  8
Sichtbare_Kanten_TC_020513_DIN_
  6
Continuous
 62
     7
100
AcDbPolyline
 90
        2
 70
     0
 43
0.5
 10
83.58142356998559
 20
136.9785965680563
 42
1.0
 10
84.08142356998559
 20
136.9785965680563
 42
1.0
  0
LWPOLYLINE
  5
4EA
330
1F
100
AcDbEntity
  8
Sichtbare_Kanten_TC_020513_DIN_
  6
Continuous
 62
     7
100
AcDbPolyline
 90
        2
 70
     0
 43
0.5
 10
89.00635418335798
 20
140.0499509238223
 42
0.57724345630791
 10
88.63142356998554
 20
139.8334045273103
 42
0.57724345630791
  0
LWPOLYLINE
  5
4EB
330
1F
100
AcDbEntity
  8
Sichtbare_Kanten_TC_020513_DIN_
  6
Continuous
 62
     7
100
AcDbPolyline
 90
        2
 70
     0
 43
0.5
 10
89.75649295661316
 20
139.0399350538753
 42
0.9999999999999
 10
90.00635418335798
 20
139.4730278468993
 42
0.9999999999999
  0
LWPOLYLINE
  5
4EC
330
1F
100
AcDbEntity
  8
Sichtbare_Kanten_TC_020513_DIN_
  6
Continuous
 62
     7
100
AcDbPolyline
 90
        2
 70
     0
 43
0.5
 10
88.63142356998554
 20
136.3728273372873
 42
0.57724345630791
 10
89.00635418335798
 20
136.1562809407753
 42
0.57724345630791
  0
LWPOLYLINE
  5
4ED
330
1F
100
AcDbEntity
  8
Sichtbare_Kanten_TC_020513_DIN_
  6
Continuous
 62
     7
100
AcDbPolyline
 90
        2
 70
     0
 43
0.5
 10
90.00635418335798
 20
136.7332040176983
 42
0.99999999999993
 10
89.75649295661316
 20
137.1662968107223
 42
0.99999999999993
  0
LWPOLYLINE
  5
4EE
330
1F
100
AcDbEntity
  8
Sichtbare_Kanten_TC_020513_DIN_
  6
Continuous
 62
     7
100
AcDbPolyline
 90
        2
 70
     0
 43
0.5
 10
89.88142356998554
 20
137.8531159322993
 42
1.0
 10
89.88142356998554
 20
138.3531159322993
 42
1.0
  0
LWPOLYLINE
  5
4EF
330
1F
100
AcDbEntity
  8
Sichtbare_Kanten_TC_020513_DIN_
  6
Continuous
 62
     7
100
AcDbPolyline
 90
        2
 70
     1
 43
0.5
 10
208.0447674911041
 20
116.6031159322983
 42
1.0
 10
211.5447674911041
 20
116.6031159322983
 42
1.0
  0
LWPOLYLINE
  5
4F0
330
1F
100
AcDbEntity
  8
Sichtbare_Kanten_TC_020513_DIN_
  6
Continuous
 62
     7
100
AcDbPolyline
 90
        2
 70
     1
 43
0.5
 10
208.0947674911042
 20
127.6031159322983
 42
1.0
 10
217.494767491104
 20
127.6031159322983
 42
1.0
  0
LWPOLYLINE
  5
4F1
330
1F
100
AcDbEntity
  8
Sichtbare_Kanten_TC_020513_DIN_
  6
Continuous
 62
     7
100
AcDbPolyline
 90
        2
 70
     1
 43
0.5
 10
199.40476749111
 20
80.99311593229879
 42
1.0
 10
226.184767491102
 20
80.99311593229879
 42
1.0
  0
LWPOLYLINE
  5
4F2
330
1F
100
AcDbEntity
  8
Sichtbare_Kanten_TC_020513_DIN_
  6
Continuous
 62
     7
100
AcDbPolyline
 90
        2
 70
     1
 43
0.5
 10
202.4047674911059
 20
80.99311593229879
 42
1.0
 10
223.1847674911061
 20
80.99311593229879
 42
1.0
  0
SPLINE
  5
4F3
330
1F
100
AcDbEntity
  8
Sichtbare_Kanten_TC_020513_DIN_
  6
Continuous
 62
     7
100
AcDbSpline
210
0.0
220
0.0
230
1.0
 70
     8
 71
     3
 72
    19
 73
    15
 74
    13
 42
0.000000001
 43
0.0000000001
 44
0.00000001
 40
0.0
 40
0.0
 40
0.0
 40
0.0
 40
0.3474606674142112
 40
0.6949175350294192
 40
0.866569648894717
 40
1.038221191655846
 40
1.207484861390106
 40
1.37674520980962
 40
1.543251855853458
 40
1.709751057160085
 40
1.873443934533461
 40
2.037147336109445
 40
2.278188137688006
 40
2.518986528946755
 40
2.518986528946755
 40
2.518986528946755
 40
2.518986528946755
 10
102.2088086201311
 20
125.9604113600563
 30
0.0
 10
102.3247403900437
 20
125.9656683224483
 30
0.0
 10
102.5566026608922
 20
125.9761822044169
 30
0.0
 10
102.8386744670633
 20
126.0472555221291
 30
0.0
 10
103.0544585688972
 20
126.1278224979477
 30
0.0
 10
103.2091953172109
 20
126.2008163111926
 30
0.0
 10
103.356672106069
 20
126.2858624812391
 30
0.0
 10
103.4951002123887
 20
126.3820222081054
 30
0.0
 10
103.6241105002205
 20
126.4890539024741
 30
0.0
 10
103.7420317903089
 20
126.6055612140484
 30
0.0
 10
103.8486955158511
 20
126.731297679184
 30
0.0
 10
103.9575706861809
 20
126.8865338376329
 30
0.0
 10
104.0627044024525
 20
127.0755562928836
 30
0.0
 10
104.1146837039619
 20
127.2278026287327
 30
0.0
 10
104.1406602727091
 20
127.3038875021103
 30
0.0
 11
102.2088086201311
 21
125.9604113600563
 31
0.0
 11
102.5551879394208
 21
125.9878026462956
 31
0.0
 11
102.8928489067823
 21
126.0697254548512
 31
0.0
 11
103.0535575259306
 21
126.1300345592524
 31
0.0
 11
103.2088086201312
 21
126.2032557996868
 31
0.0
 11
103.3554059280904
 21
126.287869151932
 31
0.0
 11
103.494383839504
 21
126.3844828461002
 31
0.0
 11
103.6224934107534
 21
126.4908426184325
 31
0.0
 11
103.740897506369
 21
126.607900101991
 31
0.0
 11
103.8466938117041
 21
126.7328100703634
 31
0.0
 11
103.9408594277001
 21
126.8667191470932
 31
0.0
 11
104.0561138454275
 21
127.0784196154089
 31
0.0
 11
104.1406602727091
 21
127.3038875021103
 31
0.0
  0
SPLINE
  5
4F4
330
1F
100
AcDbEntity
  8
Sichtbare_Kanten_TC_020513_DIN_
  6
Continuous
 62
     7
100
AcDbSpline
210
0.0
220
0.0
230
1.0
 70
     8
 71
     3
 72
    19
 73
    15
 74
    13
 42
0.000000001
 43
0.0000000001
 44
0.00000001
 40
0.0
 40
0.0
 40
0.0
 40
0.0
 40
0.3474606674141806
 40
0.6949175350290777
 40
0.8665696488941543
 40
1.038221191655187
 40
1.207484861389632
 40
1.376745209809403
 40
1.543251855853352
 40
1.709751057160029
 40
1.873443934533385
 40
2.037147336109366
 40
2.278188137687934
 40
2.518986528946673
 40
2.518986528946673
 40
2.518986528946673
 40
2.518986528946673
 10
102.2088086201311
 20
125.3687457936193
 30
0.0
 10
102.3247403900436
 20
125.3740027560112
 30
0.0
 10
102.5566026608922
 20
125.38451663798
 30
0.0
 10
102.8386744670629
 20
125.455589955692
 30
0.0
 10
103.0544585688967
 20
125.5361569315107
 30
0.0
 10
103.2091953172102
 20
125.6091507447557
 30
0.0
 10
103.3566721060685
 20
125.6941969148021
 30
0.0
 10
103.4951002123885
 20
125.7903566416684
 30
0.0
 10
103.6241105002205
 20
125.897388336037
 30
0.0
 10
103.7420317903089
 20
126.0138956476115
 30
0.0
 10
103.8486955158511
 20
126.139632112747
 30
0.0
 10
103.9575706861809
 20
126.2948682711959
 30
0.0
 10
104.0627044024525
 20
126.4838907264466
 30
0.0
 10
104.114683703962
 20
126.6361370622958
 30
0.0
 10
104.1406602727091
 20
126.7122219356733
 30
0.0
 11
102.2088086201311
 21
125.3687457936193
 31
0.0
 11
102.5551879394207
 21
125.3961370798585
 31
0.0
 11
102.8928489067819
 21
125.4780598884142
 31
0.0
 11
103.05355752593
 21
125.5383689928154
 31
0.0
 11
103.2088086201305
 21
125.6115902332498
 31
0.0
 11
103.3554059280899
 21
125.696203585495
 31
0.0
 11
103.4943838395038
 21
125.7928172796632
 31
0.0
 11
103.6224934107534
 21
125.8991770519955
 31
0.0
 11
103.740897506369
 21
126.016234535554
 31
0.0
 11
103.8466938117041
 21
126.1411445039264
 31
0.0
 11
103.9408594277002
 21
126.2750535806562
 31
0.0
 11
104.0561138454275
 21
126.4867540489719
 31
0.0
 11
104.1406602727091
 21
126.7122219356733
 31
0.0
  0
SPLINE
  5
4F5
330
1F
100
AcDbEntity
  8
Sichtbare_Kanten_TC_020513_DIN_
  6
Continuous
 62
     7
100
AcDbSpline
210
0.0
220
0.0
230
1.0
 70
     8
 71
     3
 72
    19
 73
    15
 74
    13
 42
0.000000001
 43
0.0000000001
 44
0.00000001
 40
0.0
 40
0.0
 40
0.0
 40
0.0
 40
0.3221862205370749
 40
0.6443862618344729
 40
0.8094705328399002
 40
0.9745562229283683
 40
1.142463280812157
 40
1.310374909567192
 40
1.480895931773941
 40
1.65141768759423
 40
1.8240334626689
 40
1.996661195041045
 40
2.257865073019623
 40
2.518894987889432
 40
2.518894987889432
 40
2.518894987889432
 40
2.518894987889432
 10
69.62218686726209
 20
126.7122219356733
 30
0.0
 10
69.65840053013984
 20
126.6107876150347
 30
0.0
 10
69.73082942286294
 20
126.4079146279994
 30
0.0
 10
69.88022106929637
 20
126.1802241844909
 30
0.0
 10
70.020574746133
 20
126.0140479459318
 30
0.0
 10
70.13892191718827
 20
125.8972311111179
 30
0.0
 10
70.26757068698112
 20
125.7904970684688
 30
0.0
 10
70.40635069930886
 20
125.6940840815388
 30
0.0
 10
70.55348485226855
 20
125.6092248872847
 30
0.0
 10
70.70853526606246
 20
125.5361630848591
 30
0.0
 10
70.86969220411464
 20
125.4756611838886
 30
0.0
 10
71.06426577940381
 20
125.4204053932806
 30
0.0
 10
71.29280605379206
 20
125.3776619012188
 30
0.0
 10
71.46698037080478
 20
125.371717164509
 30
0.0
 10
71.55403851984028
 20
125.3687457936193
 30
0.0
 11
69.62218686726209
 21
126.7122219356733
 31
0.0
 11
69.74245127845833
 21
126.4133232349589
 31
0.0
 11
69.91573443126228
 21
126.1416877862413
 31
0.0
 11
70.02242864401434
 21
126.0157149248671
 31
0.0
 11
70.13982495746716
 21
125.8996486035811
 31
0.0
 11
70.26901783757452
 21
125.7924013188664
 31
0.0
 11
70.40688564713817
 21
125.6965536146809
 31
0.0
 11
70.5545728987069
 21
125.6113133954866
 31
0.0
 11
70.70880199635884
 21
125.5385737580063
 31
0.0
 11
70.87041168757605
 21
125.4779230059986
 31
0.0
 11
71.03640042963524
 21
125.4305091715614
 31
0.0
 11
71.29346651673403
 21
125.3842004982159
 31
0.0
 11
71.55403851984028
 21
125.3687457936193
 31
0.0
  0
SPLINE
  5
4F6
330
1F
100
AcDbEntity
  8
Sichtbare_Kanten_TC_020513_DIN_
  6
Continuous
 62
     7
100
AcDbSpline
210
0.0
220
0.0
230
1.0
 70
     8
 71
     3
 72
    19
 73
    15
 74
    13
 42
0.000000001
 43
0.0000000001
 44
0.00000001
 40
0.0
 40
0.0
 40
0.0
 40
0.0
 40
0.3221862205370617
 40
0.6443862618344477
 40
0.8094705328398967
 40
0.9745562229283647
 40
1.142463280812154
 40
1.310374909567189
 40
1.480895931773926
 40
1.651417687594227
 40
1.824033462668892
 40
1.996661195041025
 40
2.257865073019554
 40
2.518894987889433
 40
2.518894987889433
 40
2.518894987889433
 40
2.518894987889433
 10
69.62218686726209
 20
127.3038875021103
 30
0.0
 10
69.65840053013984
 20
127.2024531814718
 30
0.0
 10
69.73082942286294
 20
126.9995801944364
 30
0.0
 10
69.88022106929641
 20
126.771889750928
 30
0.0
 10
70.02057474613298
 20
126.6057135123688
 30
0.0
 10
70.1389219171883
 20
126.4888966775549
 30
0.0
 10
70.26757068698112
 20
126.3821626349058
 30
0.0
 10
70.40635069930883
 20
126.2857496479757
 30
0.0
 10
70.55348485226858
 20
126.2008904537217
 30
0.0
 10
70.70853526606246
 20
126.1278286512961
 30
0.0
 10
70.86969220411464
 20
126.0673267503257
 30
0.0
 10
71.06426577940377
 20
126.0120709597176
 30
0.0
 10
71.29280605379202
 20
125.9693274676558
 30
0.0
 10
71.46698037080478
 20
125.9633827309461
 30
0.0
 10
71.55403851984028
 20
125.9604113600563
 30
0.0
 11
69.62218686726209
 21
127.3038875021103
 31
0.0
 11
69.74245127845833
 21
127.004988801396
 31
0.0
 11
69.91573443126228
 21
126.7333533526784
 31
0.0
 11
70.02242864401434
 21
126.6073804913041
 31
0.0
 11
70.13982495746716
 21
126.4913141700181
 31
0.0
 11
70.26901783757452
 21
126.3840668853034
 31
0.0
 11
70.40688564713817
 21
126.2882191811179
 31
0.0
 11
70.55457289870688
 21
126.2029789619236
 31
0.0
 11
70.70880199635884
 21
126.1302393244433
 31
0.0
 11
70.87041168757605
 21
126.0695885724356
 31
0.0
 11
71.03640042963521
 21
126.0221747379984
 31
0.0
 11
71.29346651673396
 21
125.9758660646529
 31
0.0
 11
71.55403851984028
 21
125.9604113600563
 31
0.0
  0
LWPOLYLINE
  5
4F7
330
1F
100
AcDbEntity
  8
Sichtbare_Kanten_TC_020513_DIN_
  6
Continuous
 62
     7
100
AcDbPolyline
 90
       25
 70
     0
 43
0.5
 10
241.043809525258
 20
143.8539623182543
 10
241.0389147918291
 20
143.8400708597433
 10
241.033617131002
 20
143.8244234483973
 10
241.027999989278
 20
143.8071154516473
 10
241.0221539657181
 20
143.7882470052973
 10
241.0161625068261
 20
143.7679158609643
 10
241.0101185958451
 20
143.7462197702653
 10
241.0041056792801
 20
143.7232588690053
 10
240.9982119720051
 20
143.6991297167073
 10
240.9925256888931
 20
143.6739300649893
 10
240.98713504482
 20
143.6477612417473
 10
240.982128254659
 20
143.6207186144123
 10
240.9776459853721
 20
143.5934721391923
 10
240.9738551299641
 20
143.5675846498743
 10
240.970705620534
 20
143.5431479376093
 10
240.9681378524371
 20
143.5201715391413
 10
240.9660898368431
 20
143.4986649912133
 10
240.9645067374771
 20
143.4786402147543
 10
240.9633289496971
 20
143.4601043623223
 10
240.9624921004841
 20
143.4430681627523
 10
240.9619437377521
 20
143.4275423448813
 10
240.961619488484
 20
143.4135364454523
 10
240.961459748036
 20
143.4010611933003
 10
240.9614096801351
 20
143.3901249330773
 10
240.9614049117631
 20
143.3807383936173
  0
LWPOLYLINE
  5
4F8
330
1F
100
AcDbEntity
  8
Sichtbare_Kanten_TC_020513_DIN_
  6
Continuous
 62
     7
100
AcDbPolyline
 90
       25
 70
     0
 43
0.5
 10
242.361405960805
 20
144.7807382505663
 10
242.2897587936001
 20
144.7789036196003
 10
242.218445412404
 20
144.7734199922813
 10
242.1475993316241
 20
144.7643147867453
 10
242.0773564498491
 20
144.7516189974083
 10
242.0078574340411
 20
144.7353612344993
 10
241.9392357986041
 20
144.7155689161553
 10
241.8716322105001
 20
144.6922730367913
 10
241.8051825683191
 20
144.6655022066363
 10
241.74014197994
 20
144.6353434484733
 10
241.6768585364891
 20
144.6019648473993
 10
241.6154490630701
 20
144.5654534261953
 10
241.5560303847861
 20
144.5258890550863
 10
241.4987145583701
 20
144.4833551805743
 10
241.44361602474
 20
144.4379340570703
 10
241.390846840627
 20
144.3897067468893
 10
241.3405214469501
 20
144.3387566965353
 10
241.2928067367141
 20
144.2852269571553
 10
241.2479721229151
 20
144.2294238966233
 10
241.206103436238
 20
144.1714846056233
 10
241.1672769706321
 20
144.1115294855363
 10
241.1315618674821
 20
144.0496801298393
 10
241.0990296523641
 20
143.9860545557273
 10
241.0697542350361
 20
143.9207755487693
 10
241.043809525258
 20
143.8539623182543
  0
LWPOLYLINE
  5
4F9
330
1F
100
AcDbEntity
  8
Sichtbare_Kanten_TC_020513_DIN_
  6
Continuous
 62
     7
100
AcDbPolyline
 90
       25
 70
     0
 43
0.5
 10
240.0520859878131
 20
144.9641012113823
 10
240.1177989165851
 20
145.0559185903803
 10
240.187231175191
 20
145.1450978678003
 10
240.2603088538721
 20
145.2315198343523
 10
240.3369175117081
 20
145.3150223654043
 10
240.4167352836201
 20
145.3952514093653
 10
240.499614350087
 20
145.4720865648523
 10
240.585442654378
 20
145.5454443853623
 10
240.6741081397601
 20
145.6152461927663
 10
240.7655011336871
 20
145.6814085405603
 10
240.8595071952411
 20
145.7438503664263
 10
240.956016651876
 20
145.8024894159563
 10
241.0549150626731
 20
145.8572446268333
 10
241.156092755086
 20
145.9080337446463
 10
241.2593589942531
 20
145.9547423284783
 10
241.3643609206751
 20
145.9972058695093
 10
241.470950714834
 20
146.0353742998373
 10
241.5789996306971
 20
146.0692023199333
 10
241.6883717696741
 20
146.0986470144523
 10
241.798921696431
 20
146.1236595075853
 10
241.9103394668171
 20
146.1441670816673
 10
242.0224343459681
 20
146.1601447027453
 10
242.135070435293
 20
146.1715756815203
 10
242.2481070678301
 20
146.1784457128773
 10
242.361405960805
 20
146.1807381075153
  0
LWPOLYLINE
  5
4FA
330
1F
100
AcDbEntity
  8
Sichtbare_Kanten_TC_020513_DIN_
  6
Continuous
 62
     7
100
AcDbPolyline
 90
       25
 70
     0
 43
0.5
 10
240.9614049117631
 20
133.4039240043893
 10
240.961636177785
 20
133.3784537475833
 10
240.9623323600361
 20
133.3530019682183
 10
240.9634886901451
 20
133.3275758188493
 10
240.9651075522971
 20
133.3021806638963
 10
240.967186562306
 20
133.2768236559163
 10
240.969725720174
 20
133.2515107553733
 10
240.972725025899
 20
133.2262479227313
 10
240.9761820952961
 20
133.2010417145023
 10
240.9800993125501
 20
133.1758986871973
 10
240.984474293477
 20
133.1508242052323
 10
240.9893046538901
 20
133.1258260172143
 10
240.9945903937881
 20
133.1009088915123
 10
241.0003291289871
 20
133.0760919016133
 10
241.0065160911151
 20
133.0513941210043
 10
241.013148895986
 20
133.0268209141023
 10
241.0202251594131
 20
133.0023782413733
 10
241.0277448813981
 20
132.9780720632803
 10
241.035703293569
 20
132.9539089363343
 10
241.0440980117391
 20
132.9298942249543
 10
241.052931420095
 20
132.9060338896043
 10
241.062196366078
 20
132.8823344867953
 10
241.0718928496901
 20
132.8588013809453
 10
241.0820184867451
 20
132.8354405325183
 10
241.092573277242
 20
132.8122584980263
  0
LWPOLYLINE
  5
4FB
330
1F
100
AcDbEntity
  8
Sichtbare_Kanten_TC_020513_DIN_
  6
Continuous
 62
     7
100
AcDbPolyline
 90
       25
 70
     0
 43
0.5
 10
239.8237429778641
 20
132.2205929916633
 10
239.802633396871
 20
132.2669573586713
 10
239.782382122762
 20
132.3136784594783
 10
239.7629867713521
 20
132.3607446711793
 10
239.7444568793841
 20
132.4081437748203
 10
239.726792446858
 20
132.4558641474973
 10
239.7100006263322
 20
132.5038938682803
 10
239.6940838019911
 20
132.5522204201943
 10
239.6790467422081
 20
132.6008324783573
 10
239.664894215352
 20
132.6497178238163
 10
239.6516286056111
 20
132.6988642376193
 10
239.6392546813551
 20
132.7482597988373
 10
239.6277748267721
 20
132.7978931825883
 10
239.617203346974
 20
132.8477274339923
 10
239.607542626149
 20
132.8977244060763
 10
239.598795048482
 20
132.9478727739583
 10
239.5909606139731
 20
132.9981594246163
 10
239.584046475179
 20
133.0485712450273
 10
239.5780478637281
 20
133.0990969103113
 10
239.5729671638081
 20
133.1497233074433
 10
239.5688091437881
 20
133.2004373234043
 10
239.5655714194841
 20
133.2512270372643
 10
239.5632587592671
 20
133.3020799320473
 10
239.561868778951
 20
133.3529828947313
 10
239.5614038627211
 20
133.4039240043893
  0
LWPOLYLINE
  5
4FC
330
1F
100
AcDbEntity
  8
Sichtbare_Kanten_TC_020513_DIN_
  6
Continuous
 62
     7
100
AcDbPolyline
 90
       25
 70
     0
 43
0.5
 10
239.653903118852
 20
144.9641012113823
 10
239.6061454932721
 20
144.9646400373703
 10
239.5578561942611
 20
144.9662600916163
 10
239.5090662162331
 20
144.9689661424883
 10
239.459811321977
 20
144.9727629583603
 10
239.4101272742781
 20
144.9776529234183
 10
239.360049835923
 20
144.9836419981253
 10
239.3096076171431
 20
144.9907337587603
 10
239.2588411490951
 20
144.9989329736953
 10
239.2077814261941
 20
145.0082432192093
 10
239.156495205644
 20
145.0186644953023
 10
239.1062437217261
 20
145.0299464624653
 10
239.0577207725081
 20
145.0418602388633
 10
239.0110217254191
 20
145.0542699259053
 10
238.9662395637061
 20
145.0670420091873
 10
238.9234696548011
 20
145.0800417822133
 10
238.8828049819501
 20
145.0931345384843
 10
238.8443409125831
 20
145.1061867635973
 10
238.808175198319
 20
145.1190625589623
 10
238.7743960540321
 20
145.1316284101733
 10
238.743101231339
 20
145.1437484186423
 10
238.7143860976721
 20
145.1552902620563
 10
238.688343636277
 20
145.1661180418263
 10
238.6650668303991
 20
145.1760982435473
 10
238.6446510474711
 20
145.1850961607233
  0
LWPOLYLINE
  5
4FD
330
1F
100
AcDbEntity
  8
Sichtbare_Kanten_TC_020513_DIN_
  6
Continuous
 62
     7
100
AcDbPolyline
 90
       25
 70
     0
 43
0.5
 10
238.6446510474711
 20
145.1850961607233
 10
238.6247049491431
 20
145.1940249365103
 10
238.6047326247721
 20
145.2029525202043
 10
238.5847412269141
 20
145.2118801038993
 10
238.5647259871991
 20
145.2208076875933
 10
238.5446916739971
 20
145.2297340791953
 10
238.5246382873091
 20
145.2386616628893
 10
238.504563442948
 20
145.2475880544913
 10
238.484471909287
 20
145.2565156381853
 10
238.4643636863261
 20
145.2654420297873
 10
238.4442387740641
 20
145.2743696134813
 10
238.4240971725021
 20
145.2832983892693
 10
238.4039388816381
 20
145.2922271650563
 10
238.3837710540321
 20
145.3011547487513
 10
238.3635913054971
 20
145.3100835245383
 10
238.3434020202191
 20
145.3190111082323
 10
238.3232055823831
 20
145.3279386919273
 10
238.3029996078041
 20
145.3368650835283
 10
238.2827864806681
 20
145.3457926672233
 10
238.2625662009741
 20
145.3547190588243
 10
238.2423435370951
 20
145.3636454504263
 10
238.2221137206581
 20
145.3725730341203
 10
238.2018791358501
 20
145.3815006178153
 10
238.1816445510421
 20
145.3904293936023
 10
238.161405197861
 20
145.3993569772973
  0
LWPOLYLINE
  5
4FE
330
1F
100
AcDbEntity
  8
Sichtbare_Kanten_TC_020513_DIN_
  6
Continuous
 62
     7
100
AcDbPolyline
 90
       25
 70
     0
 43
0.5
 10
77.09806082374689
 20
115.3663443487413
 10
77.09820149070856
 20
115.3680550020463
 10
77.09876594669458
 20
115.3700481813683
 10
77.09996280796167
 20
115.3722356718313
 10
77.10182902938959
 20
115.3743647497423
 10
77.10417864448658
 20
115.3762291830313
 10
77.1069103253567
 20
115.3778480451833
 10
77.10995493061176
 20
115.3792547148003
 10
77.11327788955799
 20
115.3804825704823
 10
77.11681661731836
 20
115.3815435331593
 10
77.1205085290157
 20
115.3824542921313
 10
77.1242922318661
 20
115.3832279604203
 10
77.12812779075739
 20
115.3838824194203
 10
77.13204739219776
 20
115.3844415109883
 10
77.136021233865
 20
115.3849147718683
 10
77.14001593715778
 20
115.3853093546163
 10
77.14399514324299
 20
115.3856312196983
 10
77.14792487747309
 20
115.3858887117633
 10
77.15176937706104
 20
115.3860877912773
 10
77.15549347526667
 20
115.3862368028893
 10
77.15906319744226
 20
115.3863428991563
 10
77.16244337684748
 20
115.3864132326373
 10
77.16559825069538
 20
115.3864549558893
 10
77.16849324829218
 20
115.3864740293753
 10
77.17109320289728
 20
115.3864787977463
  0
LWPOLYLINE
  5
4FF
330
1F
100
AcDbEntity
  8
Sichtbare_Kanten_TC_020513_DIN_
  6
Continuous
 62
     7
100
AcDbPolyline
 90
       25
 70
     0
 43
0.5
 10
96.59175393707409
 20
115.3864787977463
 10
96.59436223632906
 20
115.3864740293753
 10
96.59724590904307
 20
115.3864561479813
 10
96.60037396080105
 20
115.3864168089163
 10
96.60371241695509
 20
115.3863512438073
 10
96.60722968704306
 20
115.3862499159113
 10
96.61089358455808
 20
115.3861068647633
 10
96.61467013485111
 20
115.3859161299003
 10
96.61852834350708
 20
115.3856693666703
 10
96.6224354279721
 20
115.3853594225183
 10
96.62635800964506
 20
115.3849803369773
 10
96.63026449806307
 20
115.3845249574913
 10
96.6341221106731
 20
115.3839861315023
 10
96.63789866096607
 20
115.3833555143603
 10
96.64156077034107
 20
115.3826283376943
 10
96.64507684833609
 20
115.3817962568533
 10
96.64842901355809
 20
115.3808473509083
 10
96.65165243274811
 20
115.3797434728873
 10
96.65468690521305
 20
115.3784667413963
 10
96.65745971328806
 20
115.3769992750413
 10
96.65989754326006
 20
115.3753291528953
 10
96.66192886955406
 20
115.3734349172843
 10
96.6634791863641
 20
115.3712951105363
 10
96.66445431835308
 20
115.3689192693963
 10
96.66478631622408
 20
115.3663443487413
  0
LWPOLYLINE
  5
500
330
1F
100
AcDbEntity
  8
Sichtbare_Kanten_TC_020513_DIN_
  6
Continuous
 62
     7
100
AcDbPolyline
 90
       25
 70
     0
 43
0.5
 10
117.2659545911041
 20
144.9641012113823
 10
117.2802191746911
 20
144.9646102350483
 10
117.2939663899621
 20
144.9661313455833
 10
117.3071938527311
 20
144.9686538141503
 10
117.3199015629971
 20
144.9721657198203
 10
117.3320871365751
 20
144.9766587179433
 10
117.3437553418361
 20
144.9821220796833
 10
117.3548990262231
 20
144.9885426920183
 10
117.3655253422941
 20
144.9959134023913
 10
117.3756295216761
 20
145.0042210977803
 10
117.3852020276271
 20
145.0134443205133
 10
117.3942118657311
 20
145.0235282343163
 10
117.4026733411041
 20
145.0344454210533
 10
117.410598374673
 20
145.0461720388663
 10
117.4180012715541
 20
145.0586878221763
 10
117.4248987210471
 20
145.0719677370323
 10
117.4312644971101
 20
145.0858961504233
 10
117.4369388592921
 20
145.0999330442673
 10
117.4419432652671
 20
145.1138459604513
 10
117.4463206303801
 20
145.1274632375963
 10
117.4501162541591
 20
145.1406132143273
 10
117.4533802045071
 20
145.1531242292653
 10
117.4561530125821
 20
145.1648234289413
 10
117.4584823621001
 20
145.1755379598863
 10
117.4604159367761
 20
145.1850961607233
  0
LWPOLYLINE
  5
501
330
1F
100
AcDbEntity
  8
Sichtbare_Kanten_TC_020513_DIN_
  6
Continuous
 62
     7
100
AcDbPolyline
 90
       25
 70
     0
 43
0.5
 10
118.8394075406281
 20
145.1850961607233
 10
118.8357668889251
 20
145.1760660570393
 10
118.8314562810151
 20
145.1660524767173
 10
118.8263970387661
 20
145.1551889341603
 10
118.8205080998621
 20
145.1436137121453
 10
118.8137060178001
 20
145.1314579408893
 10
118.8059121144501
 20
145.1188610952623
 10
118.7970429433071
 20
145.1059543054833
 10
118.7870174420561
 20
145.0928758543263
 10
118.7757569325651
 20
145.0797604482903
 10
118.7631803525171
 20
145.0667416017783
 10
118.7492042554101
 20
145.0539564054743
 10
118.7337475789271
 20
145.0415383737813
 10
118.7167316449371
 20
145.0296245973833
 10
118.6980730069361
 20
145.0183497827783
 10
118.6780076993191
 20
145.0079833429583
 10
118.6568742764671
 20
144.9987267416253
 10
118.6346798909391
 20
144.9905764024983
 10
118.6114364636621
 20
144.9835251730213
 10
118.5871535313811
 20
144.9775718611013
 10
118.5618382466521
 20
144.9727105062733
 10
118.5355049145901
 20
144.9689375322593
 10
118.5081630719391
 20
144.9662481706863
 10
118.4798174870691
 20
144.9646376531853
 10
118.4504848492821
 20
144.9641012113823
  0
LWPOLYLINE
  5
502
330
1F
100
AcDbEntity
  8
Sichtbare_Kanten_TC_020513_DIN_
  6
Continuous
 62
     7
100
AcDbPolyline
 90
       25
 70
     0
 43
0.5
 10
117.4604159367761
 20
145.1850961607233
 10
117.4621253979881
 20
145.1940249365103
 10
117.4637633336271
 20
145.2029525202043
 10
117.4653297436911
 20
145.2118801038993
 10
117.4668246281831
 20
145.2208076875933
 10
117.4682456029141
 20
145.2297340791953
 10
117.4695926678861
 20
145.2386616628893
 10
117.4708705914701
 20
145.2475880544913
 10
117.472072221109
 20
145.2565156381853
 10
117.4732047093591
 20
145.2654420297873
 10
117.4742632878511
 20
145.2743696134813
 10
117.4752479565821
 20
145.2832983892693
 10
117.4761610997401
 20
145.2922271650563
 10
117.4770027173241
 20
145.3011547487513
 10
117.4777680409631
 20
145.3100835245383
 10
117.4784618390281
 20
145.3190111082323
 10
117.4790841115201
 20
145.3279386919273
 10
117.4796324742521
 20
145.3368650835283
 10
117.4801069272241
 20
145.3457926672233
 10
117.4805098546231
 20
145.3547190588243
 10
117.480838872262
 20
145.3636454504263
 10
117.4810939801421
 20
145.3725730341203
 10
117.481277562448
 20
145.3815006178153
 10
117.4813872349941
 20
145.3904293936023
 10
117.4814229977811
 20
145.3993569772973
  0
LWPOLYLINE
  5
503
330
1F
100
AcDbEntity
  8
Sichtbare_Kanten_TC_020513_DIN_
  6
Continuous
 62
     7
100
AcDbPolyline
 90
       25
 70
     0
 43
0.5
 10
118.881424046823
 20
145.3993569772973
 10
118.8813501370631
 20
145.3904293936023
 10
118.8811307919701
 20
145.3815006178153
 10
118.8807660115441
 20
145.3725730341203
 10
118.8802534115991
 20
145.3636454504263
 10
118.8795953763211
 20
145.3547190588243
 10
118.8787919057091
 20
145.3457926672233
 10
118.8778406155791
 20
145.3368650835283
 10
118.8767438901151
 20
145.3279386919273
 10
118.8755017293181
 20
145.3190111082323
 10
118.8741141331871
 20
145.3100835245383
 10
118.8725787175381
 20
145.3011547487513
 10
118.870900250741
 20
145.2922271650563
 10
118.8690739644251
 20
145.2832983892693
 10
118.8671022427761
 20
145.2743696134813
 10
118.8649850857941
 20
145.2654420297873
 10
118.8627224934781
 20
145.2565156381853
 10
118.8603168500151
 20
145.2475880544913
 10
118.8577633870331
 20
145.2386616628893
 10
118.8550668729031
 20
145.2297340791953
 10
118.8522225392541
 20
145.2208076875933
 10
118.8492351544581
 20
145.2118801038993
 10
118.8461047185151
 20
145.2029525202043
 10
118.8428288472381
 20
145.1940249365103
 10
118.8394075406281
 20
145.1850961607233
  0
LWPOLYLINE
  5
504
330
1F
100
AcDbEntity
  8
Sichtbare_Kanten_TC_020513_DIN_
  6
Continuous
 62
     7
100
AcDbPolyline
 90
       25
 70
     0
 43
0.5
 10
106.0049062741481
 20
133.4039240043893
 10
105.9950774682251
 20
133.3529828947313
 10
105.9852534306731
 20
133.3020799320473
 10
105.9754329694001
 20
133.2512270372643
 10
105.9656137002191
 20
133.2004373234043
 10
105.9557968152251
 20
133.1497233074433
 10
105.9459811223231
 20
133.0990969103113
 10
105.9361654294221
 20
133.0485712450273
 10
105.9263485444271
 20
132.9981594246163
 10
105.9165292752471
 20
132.9478727739583
 10
105.9067088139741
 20
132.8977244060763
 10
105.896884776422
 20
132.8477274339923
 10
105.8870559704981
 20
132.7978931825883
 10
105.8772283566681
 20
132.7482597988373
 10
105.8674031270231
 20
132.6988642376193
 10
105.85758266575
 20
132.6497178238163
 10
105.8477645886621
 20
132.6008324783573
 10
105.8379477036681
 20
132.5522204201943
 10
105.8281308186731
 20
132.5038938682803
 10
105.8183151257721
 20
132.4558641474973
 10
105.8084982407771
 20
132.4081437748203
 10
105.7986789715971
 20
132.3607446711793
 10
105.7888585103241
 20
132.3136784594783
 10
105.7790344727721
 20
132.2669573586713
 10
105.7692056668481
 20
132.2205929916633
  0
LWPOLYLINE
  5
505
330
1F
100
AcDbEntity
  8
Sichtbare_Kanten_TC_020513_DIN_
  6
Continuous
 62
     7
100
AcDbPolyline
 90
       25
 70
     0
 43
0.5
 10
105.7692056668481
 20
132.8122584980263
 10
105.7790344727721
 20
132.8354405325183
 10
105.7888585103241
 20
132.8588013809453
 10
105.7986789715971
 20
132.8823344867953
 10
105.8084982407771
 20
132.9060338896043
 10
105.8183151257721
 20
132.9298942249543
 10
105.8281308186731
 20
132.9539089363343
 10
105.8379477036681
 20
132.9780720632803
 10
105.8477645886621
 20
133.0023782413733
 10
105.85758266575
 20
133.0268209141023
 10
105.8674031270231
 20
133.0513941210043
 10
105.8772283566681
 20
133.0760919016133
 10
105.8870559704981
 20
133.1009088915123
 10
105.896884776422
 20
133.1258260172143
 10
105.9067088139741
 20
133.1508242052323
 10
105.9165292752471
 20
133.1758986871973
 10
105.9263485444271
 20
133.2010417145023
 10
105.9361654294221
 20
133.2262479227313
 10
105.9459811223231
 20
133.2515107553733
 10
105.9557968152251
 20
133.2768236559163
 10
105.9656137002191
 20
133.3021806638963
 10
105.9754329694001
 20
133.3275758188493
 10
105.9852534306731
 20
133.3530019682183
 10
105.9950774682251
 20
133.3784537475833
 10
106.0049062741481
 20
133.4039240043893
  0
LWPOLYLINE
  5
506
330
1F
100
AcDbEntity
  8
Sichtbare_Kanten_TC_020513_DIN_
  6
Continuous
 62
     7
100
AcDbPolyline
 90
       25
 70
     0
 43
0.5
 10
104.5036369336331
 20
146.1807381075153
 10
104.5312672627651
 20
146.1770759981403
 10
104.5588451398101
 20
146.1661278169883
 10
104.5863908303461
 20
146.1479460161463
 10
104.6139198315821
 20
146.1225878160723
 10
104.6414500249111
 20
146.0901080530413
 10
104.6690016759121
 20
146.0505603712333
 10
104.6965902817931
 20
146.0040031831993
 10
104.7242313397611
 20
145.9504960935843
 10
104.7518473637781
 20
145.8903168600333
 10
104.7794168961731
 20
145.8237003248463
 10
104.8069566262451
 20
145.7508026521933
 10
104.8344844353881
 20
145.6717811983353
 10
104.8620182049951
 20
145.5867909353503
 10
104.8895770085541
 20
145.4959916036853
 10
104.9171763432701
 20
145.3995381754173
 10
104.9448257458891
 20
145.2976309221513
 10
104.9724596513001
 20
145.1907586019763
 10
105.0000828278741
 20
145.0791989725363
 10
105.0277107728211
 20
144.9631725710163
 10
105.0553625596251
 20
144.8429094713463
 10
105.0830024255001
 20
144.7188674371973
 10
105.1106256020751
 20
144.5913969438803
 10
105.1382511628351
 20
144.4607519071823
 10
105.1658969891751
 20
144.3271850507983
  0
LWPOLYLINE
  5
507
330
1F
100
AcDbEntity
  8
Sichtbare_Kanten_TC_020513_DIN_
  6
Continuous
 62
     7
100
AcDbPolyline
 90
       25
 70
     0
 43
0.5
 10
105.1658969891751
 20
144.3271850507983
 10
105.1828044427121
 20
144.2505132120383
 10
105.2009075654231
 20
144.1782688062913
 10
105.2198904526911
 20
144.1104720991383
 10
105.2394371998991
 20
144.0471397798783
 10
105.2592295182431
 20
143.9882933061853
 10
105.278951503106
 20
143.9339529436363
 10
105.2982872498711
 20
143.8841365736253
 10
105.3169339669431
 20
143.8388286989463
 10
105.3354555142601
 20
143.7962483328113
 10
105.3541868699281
 20
143.7554036539323
 10
105.3730195534911
 20
143.7163232725393
 10
105.3918427003111
 20
143.6790322225823
 10
105.4105490220271
 20
143.6435579221973
 10
105.4290288460931
 20
143.6099254053363
 10
105.4471724999631
 20
143.5781608980433
 10
105.4648703110901
 20
143.5482930105463
 10
105.4820137990201
 20
143.5203455847033
 10
105.4984944833001
 20
143.4943472307453
 10
105.5142014992921
 20
143.4703229826223
 10
105.5290275586331
 20
143.4482990663773
 10
105.5428617966851
 20
143.4283017080553
 10
105.5555957329951
 20
143.4103595178853
 10
105.5671196950161
 20
143.3944951456323
 10
105.5773252022941
 20
143.3807383936173
  0
LWPOLYLINE
  5
508
330
1F
100
AcDbEntity
  8
Sichtbare_Kanten_TC_020513_DIN_
  6
Continuous
 62
     7
100
AcDbPolyline
 90
       25
 70
     0
 43
0.5
 10
105.1658969891751
 20
143.8539623182543
 10
105.1382416260921
 20
143.9207695883043
 10
105.1106399071901
 20
143.9860330980553
 10
105.0830763352601
 20
144.0496324461233
 10
105.0555318368161
 20
144.1114484232193
 10
105.0279897225581
 20
144.1713618200553
 10
105.000429726907
 20
144.2292534273393
 10
104.9728363526551
 20
144.2850040357843
 10
104.9451917184081
 20
144.3384932440053
 10
104.9175256264891
 20
144.3895112436543
 10
104.8899155629361
 20
144.4377886217363
 10
104.8623472226341
 20
144.4832407396563
 10
104.8348003400051
 20
144.5257889192833
 10
104.80725941784
 20
144.5653532903923
 10
104.7797041905601
 20
144.6018563669453
 10
104.7521179688661
 20
144.6352170866263
 10
104.7244828713621
 20
144.6653579633963
 10
104.6968108189781
 20
144.6921705168023
 10
104.6691864503111
 20
144.7155045431383
 10
104.6416026128021
 20
144.7353230875263
 10
104.6140390408721
 20
144.7515999239213
 10
104.5864790452201
 20
144.7643076341873
 10
104.5589035523621
 20
144.7734176080953
 10
104.5312958729951
 20
144.7789036196003
 10
104.5036369336331
 20
144.7807382505663
  0
LWPOLYLINE
  5
509
330
1F
100
AcDbEntity
  8
Sichtbare_Kanten_TC_020513_DIN_
  6
Continuous
 62
     7
100
AcDbPolyline
 90
       25
 70
     0
 43
0.5
 10
105.5773252022941
 20
143.3807383936173
 10
105.5634194386681
 20
143.3901249330773
 10
105.5476599705901
 20
143.4010611933003
 10
105.5302423012931
 20
143.4135364454523
 10
105.5113607419221
 20
143.4275423448813
 10
105.4912107957091
 20
143.4430681627523
 10
105.4699867737971
 20
143.4601043623223
 10
105.4478853715141
 20
143.4786402147543
 10
105.4250997079101
 20
143.4986649912133
 10
105.4018252862181
 20
143.5201715391413
 10
105.3782576096741
 20
143.5431479376093
 10
105.3545909894191
 20
143.5675846498743
 10
105.331020928689
 20
143.5934721391923
 10
105.3078073037351
 20
143.6207186144123
 10
105.2862626088341
 20
143.6477612417473
 10
105.2667647374351
 20
143.6739300649893
 10
105.2492064011781
 20
143.6991297167073
 10
105.2334815037931
 20
143.7232588690053
 10
105.2194863332001
 20
143.7462197702653
 10
105.2071136010371
 20
143.7679158609643
 10
105.1962572110381
 20
143.7882470052973
 10
105.1868134511201
 20
143.8071154516473
 10
105.1786762250151
 20
143.8244234483973
 10
105.1717394364561
 20
143.8400708597433
 10
105.1658969891751
 20
143.8539623182543
  0
LWPOLYLINE
  5
50A
330
1F
100
AcDbEntity
  8
Sichtbare_Kanten_TC_020513_DIN_
  6
Continuous
 62
     7
100
AcDbPolyline
 90
       25
 70
     0
 43
0.5
 10
68.59695015079609
 20
143.8539623182543
 10
68.59110770351526
 20
143.8400708597433
 10
68.58417091495625
 20
143.8244234483973
 10
68.57603368885157
 20
143.8071154516473
 10
68.5665899289333
 20
143.7882470052973
 10
68.55573353893396
 20
143.7679158609643
 10
68.54336080677149
 20
143.7462197702653
 10
68.52936563617817
 20
143.7232588690053
 10
68.51364073879358
 20
143.6991297167073
 10
68.49608240253559
 20
143.6739300649893
 10
68.47658453113667
 20
143.6477612417473
 10
68.45503983623615
 20
143.6207186144123
 10
68.43182621128199
 20
143.5934721391923
 10
68.40825615055195
 20
143.5675846498743
 10
68.38458953029749
 20
143.5431479376093
 10
68.36102185375324
 20
143.5201715391413
 10
68.33774743206135
 20
143.4986649912133
 10
68.31496176845667
 20
143.4786402147543
 10
68.29286036617401
 20
143.4601043623223
 10
68.27163634426228
 20
143.4430681627523
 10
68.25148639804956
 20
143.4275423448813
 10
68.23260483867756
 20
143.4135364454523
 10
68.2151871693813
 20
143.4010611933003
 10
68.19942770130268
 20
143.3901249330773
 10
68.18552193767658
 20
143.3807383936173
  0
LWPOLYLINE
  5
50B
330
1F
100
AcDbEntity
  8
Sichtbare_Kanten_TC_020513_DIN_
  6
Continuous
 62
     7
100
AcDbPolyline
 90
       25
 70
     0
 43
0.5
 10
68.18552193767658
 20
143.3807383936173
 10
68.19572744495508
 20
143.3944951456323
 10
68.20725140697596
 20
143.4103595178853
 10
68.21998534328577
 20
143.4283017080553
 10
68.23381958133808
 20
143.4482990663773
 10
68.24864564067957
 20
143.4703229826223
 10
68.26435265667078
 20
143.4943472307453
 10
68.28083334095118
 20
143.5203455847033
 10
68.29797682888147
 20
143.5482930105463
 10
68.31567464000818
 20
143.5781608980433
 10
68.33381829387775
 20
143.6099254053363
 10
68.35229811794397
 20
143.6435579221973
 10
68.37100443966028
 20
143.6790322225823
 10
68.3898275864803
 20
143.7163232725393
 10
68.40866027004358
 20
143.7554036539323
 10
68.42739162571064
 20
143.7962483328113
 10
68.44591317302815
 20
143.8388286989463
 10
68.46455989009968
 20
143.8841365736253
 10
68.48389563686487
 20
143.9339529436363
 10
68.5036176217281
 20
143.9882933061853
 10
68.52340994007227
 20
144.0471397798783
 10
68.54295668727985
 20
144.1104720991383
 10
68.56193957454798
 20
144.1782699983843
 10
68.58004269725916
 20
144.2505132120383
 10
68.59695015079609
 20
144.3271850507983
  0
LWPOLYLINE
  5
50C
330
1F
100
AcDbEntity
  8
Sichtbare_Kanten_TC_020513_DIN_
  6
Continuous
 62
     7
100
AcDbPolyline
 90
       25
 70
     0
 43
0.5
 10
69.25921020633808
 20
144.7807382505663
 10
69.23155365116236
 20
144.7789036196003
 10
69.20395312435267
 20
144.7734199922813
 10
69.17638955242268
 20
144.7643147867453
 10
69.14884505397907
 20
144.7516189974083
 10
69.12130174762837
 20
144.7353612344993
 10
69.09374294407007
 20
144.7155689161553
 10
69.0661495698177
 20
144.6922730367913
 10
69.03850374347797
 20
144.6655022066363
 10
69.01083884365198
 20
144.6353434484733
 10
68.98322878009907
 20
144.6019648473993
 10
68.95566043979755
 20
144.5654534261953
 10
68.92811355716816
 20
144.5258890550863
 10
68.90057144291035
 20
144.4833551805743
 10
68.87301740772358
 20
144.4379340570703
 10
68.84543118602869
 20
144.3897067468893
 10
68.81779489643208
 20
144.3387566965353
 10
68.79012403614155
 20
144.2852269571553
 10
68.76249966747395
 20
144.2294238966233
 10
68.73491582996479
 20
144.1714846056233
 10
68.70735225803486
 20
144.1115294855363
 10
68.67979107029078
 20
144.0496801298393
 10
68.65221676952478
 20
143.9860545557273
 10
68.62460789806477
 20
143.9207755487693
 10
68.59695015079609
 20
143.8539623182543
  0
LWPOLYLINE
  5
50D
330
1F
100
AcDbEntity
  8
Sichtbare_Kanten_TC_020513_DIN_
  6
Continuous
 62
     7
100
AcDbPolyline
 90
       25
 70
     0
 43
0.5
 10
68.59695015079609
 20
144.3271850507983
 10
68.62457928783527
 20
144.4606756132373
 10
68.65215835697285
 20
144.5911001127493
 10
68.67970285541645
 20
144.7182189386613
 10
68.70723185665247
 20
144.8417924803033
 10
68.73476324207417
 20
144.9615799349083
 10
68.76231370098225
 20
145.0773440759913
 10
68.78990230686298
 20
145.1888429086933
 10
68.81754336483118
 20
145.2958237093223
 10
68.84516058094135
 20
145.3977047365433
 10
68.87273011333576
 20
145.4941545885333
 10
68.90026984340778
 20
145.5850075643793
 10
68.92779765255085
 20
145.6700979631673
 10
68.9553314221584
 20
145.7492600839863
 10
68.98289022571674
 20
145.8223306101093
 10
69.01048956043354
 20
145.8891438406243
 10
69.03813777095905
 20
145.9495102327593
 10
69.06577286846277
 20
146.0031234186423
 10
69.09339485294458
 20
146.0498570364243
 10
69.12102398998377
 20
146.0896204870473
 10
69.14867577678797
 20
146.1223231714493
 10
69.17631445057026
 20
146.1478339594133
 10
69.20393881923786
 20
146.1660944383873
 10
69.23156437999836
 20
146.1770724218613
 10
69.25921020633808
 20
146.1807381075153
  0
LWPOLYLINE
  5
50E
330
1F
100
AcDbEntity
  8
Sichtbare_Kanten_TC_020513_DIN_
  6
Continuous
 62
     7
100
AcDbPolyline
 90
       25
 70
     0
 43
0.5
 10
56.30243120319477
 20
145.1850961607233
 10
56.30425748951069
 20
145.1760124128593
 10
56.30639610416529
 20
145.1660334032303
 10
56.30888280994526
 20
145.1552783411273
 10
56.31176290638086
 20
145.1438712042103
 10
56.31507692463038
 20
145.1319323938623
 10
56.31886062748066
 20
145.1195835035573
 10
56.32316169864765
 20
145.1069473188653
 10
56.32801590091816
 20
145.0941442411673
 10
56.33346614963648
 20
145.0812970560323
 10
56.33955059177521
 20
145.0685273569353
 10
56.34631452686426
 20
145.0559567373523
 10
56.35379371769068
 20
145.0437067907583
 10
56.36203346378437
 20
145.0318991106283
 10
56.37106952793238
 20
145.0206564825303
 10
56.38087568409077
 20
145.0101720255143
 10
56.39130411274067
 20
145.0006948869953
 10
56.40235719806788
 20
144.9922560613883
 10
56.41404447681538
 20
144.9848758142723
 10
56.42637071735499
 20
144.9785756033193
 10
56.43932638294336
 20
144.9733852308523
 10
56.45286378986481
 20
144.9693344991933
 10
56.46697340137598
 20
144.9664317529923
 10
56.48165283329126
 20
144.9646853369013
 10
56.49689254886738
 20
144.9641012113823
  0
LWPOLYLINE
  5
50F
330
1F
100
AcDbEntity
  8
Sichtbare_Kanten_TC_020513_DIN_
  6
Continuous
 62
     7
100
AcDbPolyline
 90
       25
 70
     0
 43
0.5
 10
55.31236229068867
 20
144.9641012113823
 10
55.28294620639917
 20
144.9646400373703
 10
55.25452432758448
 20
144.9662600916163
 10
55.22710857517359
 20
144.9689661424883
 10
55.20070848590967
 20
144.9727629583603
 10
55.17533359653589
 20
144.9776529234183
 10
55.15099344379536
 20
144.9836419981253
 10
55.12770233280298
 20
144.9907337587603
 10
55.10546503193018
 20
144.9989329736953
 10
55.0842958462917
 20
145.0082432192093
 10
55.06421146518818
 20
145.0186644953023
 10
55.04562435276148
 20
145.0299464624653
 10
55.02867517597321
 20
145.0418602388633
 10
55.01327810413477
 20
145.0542699259053
 10
54.99935684330097
 20
145.0670420091873
 10
54.98683033115498
 20
145.0800417822133
 10
54.9756151211941
 20
145.0931345384843
 10
54.96563015110127
 20
145.1061867635973
 10
54.9567991269314
 20
145.1190625589623
 10
54.9490362179958
 20
145.1316284101733
 10
54.94226274616358
 20
145.1437484186423
 10
54.93639764911768
 20
145.1552902620563
 10
54.93135986454126
 20
145.1661180418263
 10
54.92706594593159
 20
145.1760982435473
 10
54.92343959934345
 20
145.1850961607233
  0
LWPOLYLINE
  5
510
330
1F
100
AcDbEntity
  8
Sichtbare_Kanten_TC_020513_DIN_
  6
Continuous
 62
     7
100
AcDbPolyline
 90
       25
 70
     0
 43
0.5
 10
56.28142414219019
 20
145.3993569772973
 10
56.28145990497706
 20
145.3904293936023
 10
56.28156957752339
 20
145.3815006178153
 10
56.28175315982941
 20
145.3725730341203
 10
56.28200826770899
 20
145.3636454504263
 10
56.28233728534821
 20
145.3547190588243
 10
56.28274021274677
 20
145.3457926672233
 10
56.28321466571919
 20
145.3368650835283
 10
56.28376302845118
 20
145.3279386919273
 10
56.28438530094257
 20
145.3190111082323
 10
56.28507909900776
 20
145.3100835245383
 10
56.28584442264668
 20
145.3011547487513
 10
56.28668604023096
 20
145.2922271650563
 10
56.28759918338886
 20
145.2832983892693
 10
56.28858385212055
 20
145.2743696134813
 10
56.28964243061176
 20
145.2654420297873
 10
56.2907749188625
 20
145.2565156381853
 10
56.29197654850117
 20
145.2475880544913
 10
56.29325447208515
 20
145.2386616628893
 10
56.29460153705708
 20
145.2297340791953
 10
56.29602251178858
 20
145.2208076875933
 10
56.29751739627949
 20
145.2118801038993
 10
56.29908380634419
 20
145.2029525202043
 10
56.30072174198267
 20
145.1940249365103
 10
56.30243120319477
 20
145.1850961607233
  0
LWPOLYLINE
  5
511
330
1F
100
AcDbEntity
  8
Sichtbare_Kanten_TC_020513_DIN_
  6
Continuous
 62
     7
100
AcDbPolyline
 90
       25
 70
     0
 43
0.5
 10
54.92343959934345
 20
145.1850961607233
 10
54.92001829273335
 20
145.1940249365103
 10
54.91674242145649
 20
145.2029525202043
 10
54.91361198551289
 20
145.2118801038993
 10
54.91062460071674
 20
145.2208076875933
 10
54.90778026706806
 20
145.2297340791953
 10
54.90508375293848
 20
145.2386616628893
 10
54.90253028995625
 20
145.2475880544913
 10
54.90012464649317
 20
145.2565156381853
 10
54.89786205417749
 20
145.2654420297873
 10
54.89574489719507
 20
145.2743696134813
 10
54.89377317554585
 20
145.2832983892693
 10
54.89194688922999
 20
145.2922271650563
 10
54.89026842243305
 20
145.3011547487513
 10
54.8887330067837
 20
145.3100835245383
 10
54.88734541065327
 20
145.3190111082323
 10
54.88610324985615
 20
145.3279386919273
 10
54.88500652439228
 20
145.3368650835283
 10
54.88405523426167
 20
145.3457926672233
 10
54.88325176365021
 20
145.3547190588243
 10
54.88259372837177
 20
145.3636454504263
 10
54.88208112842676
 20
145.3725730341203
 10
54.88171634800068
 20
145.3815006178153
 10
54.88149700290796
 20
145.3904293936023
 10
54.88142309314839
 20
145.3993569772973
  0
LWPOLYLINE
  5
512
330
1F
100
AcDbEntity
  8
Sichtbare_Kanten_TC_020513_DIN_
  6
Continuous
 62
     7
100
AcDbPolyline
 90
       25
 70
     0
 43
0.5
 10
67.75794086582295
 20
133.4039240043893
 10
67.76776967174646
 20
133.3784537475833
 10
67.77759370929829
 20
133.3530019682183
 10
67.78741417057148
 20
133.3275758188493
 10
67.79723343975178
 20
133.3021806638963
 10
67.80705032474629
 20
133.2768236559163
 10
67.8168660176479
 20
133.2515107553733
 10
67.82668171054956
 20
133.2262479227313
 10
67.83649859554407
 20
133.2010417145023
 10
67.84631786472437
 20
133.1758986871973
 10
67.85613832599756
 20
133.1508242052323
 10
67.86596236354939
 20
133.1258260172143
 10
67.87579116947285
 20
133.1009088915123
 10
67.88561878330347
 20
133.0760919016133
 10
67.89544401294819
 20
133.0513941210043
 10
67.90526447422138
 20
133.0268209141023
 10
67.91508255130879
 20
133.0023782413733
 10
67.92489943630329
 20
132.9780720632803
 10
67.93471632129786
 20
132.9539089363343
 10
67.94453201419947
 20
132.9298942249543
 10
67.95434889919397
 20
132.9060338896043
 10
67.96416816837427
 20
132.8823344867953
 10
67.97398862964747
 20
132.8588013809453
 10
67.98381266719929
 20
132.8354405325183
 10
67.99364147312275
 20
132.8122584980263
  0
LWPOLYLINE
  5
513
330
1F
100
AcDbEntity
  8
Sichtbare_Kanten_TC_020513_DIN_
  6
Continuous
 62
     7
100
AcDbPolyline
 90
       25
 70
     0
 43
0.5
 10
67.99364147312275
 20
132.2205929916633
 10
67.98381266719929
 20
132.2669573586713
 10
67.97398862964747
 20
132.3136784594783
 10
67.96416816837427
 20
132.3607446711793
 10
67.95434889919397
 20
132.4081437748203
 10
67.94453201419947
 20
132.4558641474973
 10
67.93471632129786
 20
132.5038938682803
 10
67.92489943630329
 20
132.5522204201943
 10
67.91508255130879
 20
132.6008324783573
 10
67.90526447422138
 20
132.6497178238163
 10
67.89544401294819
 20
132.6988642376193
 10
67.88561878330347
 20
132.7482597988373
 10
67.87579116947285
 20
132.7978931825883
 10
67.86596236354939
 20
132.8477274339923
 10
67.85613832599756
 20
132.8977244060763
 10
67.84631786472437
 20
132.9478727739583
 10
67.83649859554407
 20
132.9981594246163
 10
67.82668171054956
 20
133.0485712450273
 10
67.8168660176479
 20
133.0990969103113
 10
67.80705032474629
 20
133.1497233074433
 10
67.79723343975178
 20
133.2004373234043
 10
67.78741417057148
 20
133.2512270372643
 10
67.77759370929829
 20
133.3020799320473
 10
67.76776967174646
 20
133.3529828947313
 10
67.75794086582295
 20
133.4039240043893
  0
SOLID
  5
514
330
1F
100
AcDbEntity
  8
1
 62
     2
100
AcDbTrace
 10
236.3595458144479
 20
68.32843231421882
 30
0.0
 11
237.0201096130378
 21
67.89527974023547
 31
0.0
 12
235.0447674911071
 22
65.60311593229869
 32
0.0
 13
235.0447674911071
 23
65.60311593229869
 33
0.0
  0
LEADER
  5
515
330
1F
100
AcDbEntity
  8
1
  6
Continuous
 62
     2
100
AcDbLeader
  3
Standard
 71
     0
 76
     3
 10
235.0447674911071
 20
65.60311593229869
 30
0.0
 10
244.997853154821
 20
80.7817122713487
 30
0.0
 10
258.2288059621421
 20
80.7817122713487
 30
0.0
  0
MTEXT
  5
517
330
1F
100
AcDbEntity
  8
1
 62
     4
100
AcDbMText
 10
247.4034809379701
 20
81.88429167195879
 30
0.0
 40
3.5
 41
0.0
 71
     7
 72
     1
  1
\U+00f85,5
  7
CONVERTER_13
 73
     1
 44
1.32052821128451
  0
MTEXT
  5
518
330
1F
100
AcDbEntity
  8
1
 62
     7
100
AcDbMText
 10
256.6763006887431
 20
10.0606394207561
 30
0.0
 40
4.5
 41
0.0
 71
     5
 72
     1
  1
1:1
  7
CONVERTER_11
 73
     1
 44
0.75727272727273
  0
MTEXT
  5
519
330
1F
100
AcDbEntity
  8
1
 62
     7
100
AcDbMText
 10
119.6
 20
7.49999999999987
 30
0.0
 40
3.0
 41
0.0
 71
     4
 72
     1
  1
Pezzimenti
  7
CONVERTER_11
 73
     1
 44
0.75727272727273
  0
MTEXT
  5
51A
330
1F
100
AcDbEntity
  8
1
 62
     7
100
AcDbMText
 10
119.6
 20
12.4999999999999
 30
0.0
 40
3.0
 41
0.0
 71
     4
 72
     1
  1
08/08/14
  7
CONVERTER_11
 73
     1
 44
0.75727272727273
  0
MTEXT
  5
51B
330
1F
100
AcDbEntity
  8
1
 62
     7
100
AcDbMText
 10
144.276300688743
 20
12.5
 30
0.0
 40
4.5
 41
0.0
 71
     4
 72
     1
  1
C7AP 06 L\PSurface mounting h. 1 lev. PG21.
  7
CONVERTER_11
 73
     1
 44
0.75727272727273
  0
DIMENSION
  5
528
330
1F
100
AcDbEntity
  8
1
100
AcDbDimension
  2
*D2
 10
253.479853035845
 20
61.60311593229879
 30
0.0
 11
249.979853035845
 21
54.69520997853169
 31
0.0
 70
    32
  1
<>
 71
     5
 42
-1.0
 53
90.0
  3
ME10_DIM_10
100
AcDbAlignedDimension
 13
241.2947674911021
 23
65.60311593229869
 33
0.0
 14
241.2947674911021
 24
61.60311593229879
 34
0.0
 50
90.0
100
AcDbRotatedDimension
  0
DIMENSION
  5
533
330
1F
100
AcDbEntity
  8
1
100
AcDbDimension
  2
*D3
 10
241.2947674911021
 20
38.8563106383094
 30
0.0
 11
212.7947674911021
 21
42.3563106383094
 31
0.0
 70
    32
  1
<>
 71
     5
 42
-1.0
 53
0.00013888888889
  3
ME10_DIM_11
100
AcDbAlignedDimension
 13
184.2947674911021
 23
61.60311593229879
 33
0.0
 14
241.2947674911021
 24
61.60311593229879
 34
0.0
100
AcDbRotatedDimension
  0
DIMENSION
  5
53E
330
1F
100
AcDbEntity
  8
1
100
AcDbDimension
  2
*D4
 10
190.2947674911041
 20
49.96280215330829
 30
0.0
 11
212.7947674911041
 21
53.46280215330829
 31
0.0
 70
    32
  1
<>
 71
     5
 42
-1.0
 53
0.00013888888889
  3
ME10_DIM_12
100
AcDbAlignedDimension
 13
235.2947674911041
 23
59.10311593229869
 33
0.0
 14
190.2947674911041
 24
59.10311593229869
 34
0.0
100
AcDbRotatedDimension
  0
DIMENSION
  5
549
330
1F
100
AcDbEntity
  8
1
100
AcDbDimension
  2
*D5
 10
184.2947674911021
 20
163.1698015676993
 30
0.0
 11
221.5117424769637
 21
166.8198015676993
 31
0.0
 70
    32
  1
72,5
 71
     5
 42
-1.0
 53
0.00013888888889
  3
ME10_DIM_13
100
AcDbAlignedDimension
 13
258.7287174628252
 23
116.6031159322983
 33
0.0
 14
184.2947674911021
 24
65.60311593229869
 34
0.0
100
AcDbRotatedDimension
  0
DIMENSION
  5
554
330
1F
100
AcDbEntity
  8
1
100
AcDbDimension
  2
*D6
 10
122.8814235699861
 20
163.1698015676993
 30
0.0
 11
86.88142356998588
 21
166.6698015676993
 31
0.0
 70
    32
  1
<>
 71
     5
 42
-1.0
 53
0.00013888888889
  3
ME10_DIM_14
100
AcDbAlignedDimension
 13
50.8814235699856
 23
131.6031159322983
 33
0.0
 14
122.8814235699861
 24
131.6031159322983
 34
0.0
100
AcDbRotatedDimension
  0
DIMENSION
  5
55F
330
1F
100
AcDbEntity
  8
1
100
AcDbDimension
  2
*D7
 10
127.8814235699861
 20
38.8563106383094
 30
0.0
 11
86.88142356998588
 21
42.3563106383094
 31
0.0
 70
    32
  1
<>
 71
     5
 42
-1.0
 53
0.00013888888889
  3
ME10_DIM_15
100
AcDbAlignedDimension
 13
45.8814235699856
 23
61.60311593229879
 33
0.0
 14
127.8814235699861
 24
61.60311593229879
 34
0.0
100
AcDbRotatedDimension
  0
DIMENSION
  5
56A
330
1F
100
AcDbEntity
  8
1
100
AcDbDimension
  2
*D8
 10
121.8814235699861
 20
49.97712684635059
 30
0.0
 11
86.88142356998588
 21
53.47712684635059
 31
0.0
 70
    32
  1
<>
 71
     5
 42
-1.0
 53
0.00013888888889
  3
ME10_DIM_16
100
AcDbAlignedDimension
 13
51.8814235699856
 23
59.10311593229879
 33
0.0
 14
121.8814235699861
 24
59.10311593229879
 34
0.0
100
AcDbRotatedDimension
  0
DIMENSION
  5
575
330
1F
100
AcDbEntity
  8
1
100
AcDbDimension
  2
*D9
 10
169.9732098769021
 20
61.60311593229879
 30
0.0
 11
166.4732098769021
 21
98.10311593229903
 31
0.0
 70
    32
  1
<>
 71
     5
 42
-1.0
 53
90.0
  3
ME10_DIM_17
100
AcDbAlignedDimension
 13
190.7447674911081
 23
134.6031159322993
 33
0.0
 14
184.2947674911021
 24
61.60311593229879
 34
0.0
 50
90.0
100
AcDbRotatedDimension
  0
DIMENSION
  5
580
330
1F
100
AcDbEntity
  8
1
100
AcDbDimension
  2
*D10
 10
141.614370897428
 20
94.38311593229929
 30
0.0
 11
138.114370897428
 21
80.99311593229905
 31
0.0
 70
    32
  1
PG21
 71
     5
 42
-1.0
 53
90.0
  3
ME10_DIM_18
100
AcDbAlignedDimension
 13
127.8814235699861
 23
67.60311593229879
 33
0.0
 14
128.1814235699861
 24
94.38311593229929
 34
0.0
 50
90.0
100
AcDbRotatedDimension
  0
DIMENSION
  5
58B
330
1F
100
AcDbEntity
  8
1
100
AcDbDimension
  2
*D11
 10
34.029405545526
 20
152.6031159322993
 30
0.0
 11
30.529405545526
 21
107.103115932299
 31
0.0
 70
    32
  1
<>
 71
     5
 42
-1.0
 53
90.0
  3
ME10_DIM_19
100
AcDbAlignedDimension
 13
45.8814235699856
 23
61.60311593229879
 33
0.0
 14
54.8814235699856
 24
152.6031159322993
 34
0.0
 50
90.0
100
AcDbRotatedDimension
  0
ENDSEC
  0
SECTION
  2
OBJECTS
  0
DICTIONARY
  5
C
330
0
100
AcDbDictionary
281
     1
  3
ACAD_GROUP
350
D
  3
ACAD_LAYOUT
350
1A
  3
ACAD_MATERIAL
350
3B
  3
ACAD_MLEADERSTYLE
350
58E
  3
ACAD_MLINESTYLE
350
17
  3
ACAD_PLOTSETTINGS
350
19
  3
ACAD_PLOTSTYLENAME
350
E
  3
ACAD_VISUALSTYLE
350
2A
  3
AcDbVariableDictionary
350
58C
  0
DICTIONARY
  5
D
102
{ACAD_REACTORS
330
C
102
}
330
C
100
AcDbDictionary
281
     1
  0
DICTIONARY
  5
1A
102
{ACAD_REACTORS
330
C
102
}
330
C
100
AcDbDictionary
281
     1
  3
Layout1
350
1E
  3
Layout2
350
26
  3
Model
350
22
  0
DICTIONARY
  5
3B
102
{ACAD_REACTORS
330
C
102
}
330
C
100
AcDbDictionary
281
     1
  3
ByBlock
350
3D
  3
ByLayer
350
3C
  3
Global
350
3E
  0
DICTIONARY
  5
58E
102
{ACAD_REACTORS
330
C
102
}
330
C
100
AcDbDictionary
281
     1
  0
DICTIONARY
  5
17
102
{ACAD_REACTORS
330
C
102
}
330
C
100
AcDbDictionary
281
     1
  3
Standard
350
18
  0
DICTIONARY
  5
19
102
{ACAD_REACTORS
330
C
102
}
330
C
100
AcDbDictionary
281
     1
  0
ACDBDICTIONARYWDFLT
  5
E
102
{ACAD_REACTORS
330
C
102
}
330
C
100
AcDbDictionary
281
     1
  3
Normal
350
F
100
AcDbDictionaryWithDefault
340
F
  0
DICTIONARY
  5
2A
102
{ACAD_REACTORS
330
C
102
}
330
C
100
AcDbDictionary
281
     1
  3
2dWireframe
350
2F
  3
3D Hidden
350
31
  3
3dWireframe
350
30
  3
Basic
350
32
  3
Brighten
350
36
  3
ColorChange
350
3A
  3
Conceptual
350
34
  3
Dim
350
35
  3
Facepattern
350
39
  3
Flat
350
2B
  3
FlatWithEdges
350
2C
  3
Gouraud
350
2D
  3
GouraudWithEdges
350
2E
  3
Linepattern
350
38
  3
Realistic
350
33
  3
Thicken
350
37
  0
DICTIONARY
  5
58C
102
{ACAD_REACTORS
330
C
102
}
330
C
100
AcDbDictionary
281
     1
  3
DIMASSOC
350
58F
  3
HIDETEXT
350
590
  0
LAYOUT
  5
1E
102
{ACAD_REACTORS
330
1A
102
}
330
1A
100
AcDbPlotSettings
  1

  2
none_device
  4

  6

 40
0.0
 41
0.0
 42
0.0
 43
0.0
 44
0.0
 45
0.0
 46
0.0
 47
0.0
 48
0.0
 49
0.0
140
0.0
141
0.0
142
1.0
143
1.0
 70
   688
 72
     0
 73
     0
 74
     5
  7

 75
    16
147
1.0
148
0.0
149
0.0
100
AcDbLayout
  1
Layout1
 70
     1
 71
     1
 10
0.0
 20
0.0
 11
12.0
 21
9.0
 12
0.0
 22
0.0
 32
0.0
 14
1.00000000000000E+20
 24
1.00000000000000E+20
 34
1.00000000000000E+20
 15
-1.00000000000000E+20
 25
-1.00000000000000E+20
 35
-1.00000000000000E+20
146
0.0
 13
0.0
 23
0.0
 33
0.0
 16
1.0
 26
0.0
 36
0.0
 17
0.0
 27
1.0
 37
0.0
 76
     0
330
1B
  0
LAYOUT
  5
26
102
{ACAD_REACTORS
330
1A
102
}
330
1A
100
AcDbPlotSettings
  1

  2
none_device
  4

  6

 40
0.0
 41
0.0
 42
0.0
 43
0.0
 44
0.0
 45
0.0
 46
0.0
 47
0.0
 48
0.0
 49
0.0
140
0.0
141
0.0
142
1.0
143
1.0
 70
   688
 72
     0
 73
     0
 74
     5
  7

 75
    16
147
1.0
148
0.0
149
0.0
100
AcDbLayout
  1
Layout2
 70
     1
 71
     2
 10
0.0
 20
0.0
 11
0.0
 21
0.0
 12
0.0
 22
0.0
 32
0.0
 14
0.0
 24
0.0
 34
0.0
 15
0.0
 25
0.0
 35
0.0
146
0.0
 13
0.0
 23
0.0
 33
0.0
 16
1.0
 26
0.0
 36
0.0
 17
0.0
 27
1.0
 37
0.0
 76
     0
330
23
  0
LAYOUT
  5
22
102
{ACAD_REACTORS
330
1A
102
}
330
1A
100
AcDbPlotSettings
  1

  2
none_device
  4

  6

 40
0.0
 41
0.0
 42
0.0
 43
0.0
 44
0.0
 45
0.0
 46
0.0
 47
0.0
 48
0.0
 49
0.0
140
0.0
141
0.0
142
1.0
143
1.0
 70
  1712
 72
     0
 73
     0
 74
     0
  7

 75
     0
147
1.0
148
0.0
149
0.0
100
AcDbLayout
  1
Model
 70
     1
 71
     0
 10
0.0
 20
0.0
 11
12.0
 21
9.0
 12
0.0
 22
0.0
 32
0.0
 14
0.0
 24
0.0
 34
0.0
 15
296.9999999999999
 25
210.0
 35
0.0
146
0.0
 13
0.0
 23
0.0
 33
0.0
 16
1.0
 26
0.0
 36
0.0
 17
0.0
 27
1.0
 37
0.0
 76
     0
330
1F
331
29
  0
MATERIAL
  5
3D
102
{ACAD_REACTORS
330
3B
102
}
102
{ACAD_XDICTIONARY
360
5B3
102
}
330
3B
100
AcDbMaterial
  1
ByBlock
  0
MATERIAL
  5
3C
102
{ACAD_REACTORS
330
3B
102
}
102
{ACAD_XDICTIONARY
360
5B1
102
}
330
3B
100
AcDbMaterial
  1
ByLayer
  0
MATERIAL
  5
3E
102
{ACAD_REACTORS
330
3B
102
}
102
{ACAD_XDICTIONARY
360
5B5
102
}
330
3B
100
AcDbMaterial
  1
Global
  0
MLINESTYLE
  5
18
102
{ACAD_REACTORS
330
17
102
}
330
17
100
AcDbMlineStyle
  2
Standard
 70
     0
  3

 62
   256
 51
90.0
 52
90.0
 71
     2
 49
0.5
 62
   256
  6
BYLAYER
 49
-0.5
 62
   256
  6
BYLAYER
  0
ACDBPLACEHOLDER
  5
F
102
{ACAD_REACTORS
330
E
102
}
330
E
  0
VISUALSTYLE
  5
2F
102
{ACAD_REACTORS
330
2A
102
}
102
{ACAD_XDICTIONARY
360
599
102
}
330
2A
100
AcDbVisualStyle
  2
2dWireframe
 70
     4
 71
     0
 72
     2
 73
     0
 90
        0
 40
-0.6
 41
-30.0
 62
     5
 63
     7
 74
     1
 91
        4
 64
     7
 65
   257
 75
     1
175
     1
 42
1.0
 92
        0
 66
   257
 43
1.0
 76
     1
 77
     6
 78
     2
 67
     7
 79
     5
170
     0
171
     0
290
     0
174
     0
 93
        1
 44
0.0
173
     0
291
     0
 45
0.0
1001
ACAD
1000
AcDbSavedByObjectVersion
1070
     0
  0
VISUALSTYLE
  5
31
102
{ACAD_REACTORS
330
2A
102
}
102
{ACAD_XDICTIONARY
360
59D
102
}
330
2A
100
AcDbVisualStyle
  2
3D Hidden
 70
     6
 71
     1
 72
     2
 73
     2
 90
        0
 40
-0.6
 41
-30.0
 62
     5
 63
     7
 74
     2
 91
        2
 64
     7
 65
   257
 75
     2
175
     1
 42
40.0
 92
        0
 66
   257
 43
1.0
 76
     1
 77
     6
 78
     2
 67
     7
 79
     3
170
     0
171
     0
290
     0
174
     0
 93
        1
 44
0.0
173
     0
291
     0
 45
0.0
1001
ACAD
1000
AcDbSavedByObjectVersion
1070
     0
  0
VISUALSTYLE
  5
30
102
{ACAD_REACTORS
330
2A
102
}
102
{ACAD_XDICTIONARY
360
59B
102
}
330
2A
100
AcDbVisualStyle
  2
3dWireframe
 70
     5
 71
     0
 72
     2
 73
     0
 90
        0
 40
-0.6
 41
-30.0
 62
     5
 63
     7
 74
     1
 91
        4
 64
     7
 65
   257
 75
     1
175
     1
 42
1.0
 92
        0
 66
   257
 43
1.0
 76
     1
 77
     6
 78
     2
 67
     7
 79
     5
170
     0
171
     0
290
     0
174
     0
 93
        1
 44
0.0
173
     0
291
     0
 45
0.0
1001
ACAD
1000
AcDbSavedByObjectVersion
1070
     0
  0
VISUALSTYLE
  5
32
102
{ACAD_REACTORS
330
2A
102
}
102
{ACAD_XDICTIONARY
360
59F
102
}
330
2A
100
AcDbVisualStyle
  2
Basic
 70
     7
 71
     1
 72
     0
 73
     1
 90
        0
 40
-0.6
 41
-30.0
 62
     5
 63
     7
 74
     0
 91
        4
 64
     7
 65
   257
 75
     1
175
     1
 42
1.0
 92
        8
 66
     7
 43
1.0
 76
     1
 77
     6
 78
     2
 67
     7
 79
     5
170
     0
171
     0
290
     0
174
     0
 93
        1
 44
0.0
173
     0
291
     1
 45
0.0
1001
ACAD
1000
AcDbSavedByObjectVersion
1070
     0
  0
VISUALSTYLE
  5
36
102
{ACAD_REACTORS
330
2A
102
}
102
{ACAD_XDICTIONARY
360
5A7
102
}
330
2A
100
AcDbVisualStyle
  2
Brighten
 70
    12
 71
     2
 72
     2
 73
     0
 90
        0
 40
-0.6
 41
-30.0
 62
     5
 63
     7
 74
     1
 91
        4
 64
     7
 65
   257
 75
     1
175
     1
 42
1.0
 92
        8
 66
     7
 43
1.0
 76
     1
 77
     6
 78
     2
 67
     7
 79
     5
170
     0
171
     0
290
     0
174
     0
 93
        1
 44
50.0
173
     0
291
     1
 45
0.0
1001
ACAD
1000
AcDbSavedByObjectVersion
1070
     0
  0
VISUALSTYLE
  5
3A
102
{ACAD_REACTORS
330
2A
102
}
102
{ACAD_XDICTIONARY
360
5AF
102
}
330
2A
100
AcDbVisualStyle
  2
ColorChange
 70
    16
 71
     2
 72
     2
 73
     3
 90
        0
 40
-0.6
 41
-30.0
 62
     5
 63
     8
 74
     1
 91
        4
 64
     7
 65
   257
 75
     1
175
     1
 42
1.0
 92
        8
 66
     8
 43
1.0
 76
     1
 77
     6
 78
     2
 67
     7
 79
     5
170
     0
171
     0
290
     0
174
     0
 93
        1
 44
0.0
173
     0
291
     1
 45
0.0
1001
ACAD
1000
AcDbSavedByObjectVersion
1070
     0
  0
VISUALSTYLE
  5
34
102
{ACAD_REACTORS
330
2A
102
}
102
{ACAD_XDICTIONARY
360
5A3
102
}
330
2A
100
AcDbVisualStyle
  2
Conceptual
 70
     9
 71
     3
 72
     2
 73
     0
 90
        0
 40
-0.6
 41
-30.0
 62
     5
 63
     7
 74
     2
 91
        2
 64
     7
 65
   257
 75
     1
175
     1
 42
40.0
 92
        8
 66
     7
 43
1.0
 76
     1
 77
     6
 78
     2
 67
     7
 79
     3
170
     0
171
     0
290
     0
174
     0
 93
        1
 44
0.0
173
     0
291
     0
 45
0.0
1001
ACAD
1000
AcDbSavedByObjectVersion
1070
     0
  0
VISUALSTYLE
  5
35
102
{ACAD_REACTORS
330
2A
102
}
102
{ACAD_XDICTIONARY
360
5A5
102
}
330
2A
100
AcDbVisualStyle
  2
Dim
 70
    11
 71
     2
 72
     2
 73
     0
 90
        0
 40
-0.6
 41
-30.0
 62
     5
 63
     7
 74
     1
 91
        4
 64
     7
 65
   257
 75
     1
175
     1
 42
1.0
 92
        8
 66
     7
 43
1.0
 76
     1
 77
     6
 78
     2
 67
     7
 79
     5
170
     0
171
     0
290
     0
174
     0
 93
        1
 44
-50.0
173
     0
291
     1
 45
0.0
1001
ACAD
1000
AcDbSavedByObjectVersion
1070
     0
  0
VISUALSTYLE
  5
39
102
{ACAD_REACTORS
330
2A
102
}
102
{ACAD_XDICTIONARY
360
5AD
102
}
330
2A
100
AcDbVisualStyle
  2
Facepattern
 70
    15
 71
     2
 72
     2
 73
     0
 90
        0
 40
-0.6
 41
-30.0
 62
     5
 63
     7
 74
     1
 91
        4
 64
     7
 65
   257
 75
     1
175
     1
 42
1.0
 92
        8
 66
     7
 43
1.0
 76
     1
 77
     6
 78
     2
 67
     7
 79
     5
170
     0
171
     0
290
     0
174
     0
 93
        1
 44
0.0
173
     0
291
     1
 45
0.0
1001
ACAD
1000
AcDbSavedByObjectVersion
1070
     0
  0
VISUALSTYLE
  5
2B
102
{ACAD_REACTORS
330
2A
102
}
102
{ACAD_XDICTIONARY
360
591
102
}
330
2A
100
AcDbVisualStyle
  2
Flat
 70
     0
 71
     2
 72
     1
 73
     1
 90
        2
 40
-0.6
 41
30.0
 62
     5
 63
     7
 74
     0
 91
        4
 64
     7
 65
   257
 75
     1
175
     1
 42
1.0
 92
        8
 66
     7
 43
1.0
 76
     1
 77
     6
 78
     2
 67
     7
 79
     5
170
     0
171
     0
290
     0
174
     0
 93
       13
 44
0.0
173
     0
291
     1
 45
0.0
1001
ACAD
1000
AcDbSavedByObjectVersion
1070
     0
  0
VISUALSTYLE
  5
2C
102
{ACAD_REACTORS
330
2A
102
}
102
{ACAD_XDICTIONARY
360
593
102
}
330
2A
100
AcDbVisualStyle
  2
FlatWithEdges
 70
     1
 71
     2
 72
     1
 73
     1
 90
        2
 40
-0.6
 41
30.0
 62
     5
 63
     7
 74
     1
 91
        4
 64
     7
 65
   257
 75
     1
175
     1
 42
1.0
 92
        0
 66
   257
 43
1.0
 76
     1
 77
     6
 78
     2
 67
     7
 79
     5
170
     0
171
     0
290
     0
174
     0
 93
       13
 44
0.0
173
     0
291
     1
 45
0.0
1001
ACAD
1000
AcDbSavedByObjectVersion
1070
     0
  0
VISUALSTYLE
  5
2D
102
{ACAD_REACTORS
330
2A
102
}
102
{ACAD_XDICTIONARY
360
595
102
}
330
2A
100
AcDbVisualStyle
  2
Gouraud
 70
     2
 71
     2
 72
     2
 73
     1
 90
        2
 40
-0.6
 41
30.0
 62
     5
 63
     7
 74
     0
 91
        4
 64
     7
 65
   257
 75
     1
175
     1
 42
1.0
 92
        0
 66
     7
 43
1.0
 76
     1
 77
     6
 78
     2
 67
     7
 79
     5
170
     0
171
     0
290
     0
174
     0
 93
       13
 44
0.0
173
     0
291
     1
 45
0.0
1001
ACAD
1000
AcDbSavedByObjectVersion
1070
     0
  0
VISUALSTYLE
  5
2E
102
{ACAD_REACTORS
330
2A
102
}
102
{ACAD_XDICTIONARY
360
597
102
}
330
2A
100
AcDbVisualStyle
  2
GouraudWithEdges
 70
     3
 71
     2
 72
     2
 73
     1
 90
        2
 40
-0.6
 41
30.0
 62
     5
 63
     7
 74
     1
 91
        4
 64
     7
 65
   257
 75
     1
175
     1
 42
1.0
 92
        0
 66
   257
 43
1.0
 76
     1
 77
     6
 78
     2
 67
     7
 79
     5
170
     0
171
     0
290
     0
174
     0
 93
       13
 44
0.0
173
     0
291
     1
 45
0.0
1001
ACAD
1000
AcDbSavedByObjectVersion
1070
     0
  0
VISUALSTYLE
  5
38
102
{ACAD_REACTORS
330
2A
102
}
102
{ACAD_XDICTIONARY
360
5AB
102
}
330
2A
100
AcDbVisualStyle
  2
Linepattern
 70
    14
 71
     2
 72
     2
 73
     0
 90
        0
 40
-0.6
 41
-30.0
 62
     5
 63
     7
 74
     1
 91
        4
 64
     7
 65
   257
 75
     7
175
     7
 42
1.0
 92
        8
 66
     7
 43
1.0
 76
     1
 77
     6
 78
     2
 67
     7
 79
     5
170
     0
171
     0
290
     0
174
     0
 93
        1
 44
0.0
173
     0
291
     1
 45
0.0
1001
ACAD
1000
AcDbSavedByObjectVersion
1070
     0
  0
VISUALSTYLE
  5
33
102
{ACAD_REACTORS
330
2A
102
}
102
{ACAD_XDICTIONARY
360
5A1
102
}
330
2A
100
AcDbVisualStyle
  2
Realistic
 70
     8
 71
     2
 72
     2
 73
     0
 90
        0
 40
-0.6
 41
-30.0
 62
     5
 63
     7
 74
     1
 91
        0
 64
     7
 65
   257
 75
     1
175
     1
 42
1.0
 92
        8
 66
     8
 43
1.0
 76
     1
 77
     6
 78
     2
 67
     7
 79
     5
170
     0
171
     0
290
     0
174
     0
 93
       13
 44
0.0
173
     0
291
     0
 45
0.0
1001
ACAD
1000
AcDbSavedByObjectVersion
1070
     0
  0
VISUALSTYLE
  5
37
102
{ACAD_REACTORS
330
2A
102
}
102
{ACAD_XDICTIONARY
360
5A9
102
}
330
2A
100
AcDbVisualStyle
  2
Thicken
 70
    13
 71
     2
 72
     2
 73
     0
 90
        0
 40
-0.6
 41
-30.0
 62
     5
 63
     7
 74
     1
 91
        4
 64
     7
 65
   257
 75
     1
175
     1
 42
1.0
 92
       12
 66
     7
 43
1.0
 76
     1
 77
     6
 78
     2
 67
     7
 79
     5
170
     0
171
     0
290
     0
174
     0
 93
        1
 44
0.0
173
     0
291
     1
 45
0.0
1001
ACAD
1000
AcDbSavedByObjectVersion
1070
     0
  0
DICTIONARYVAR
  5
58F
102
{ACAD_REACTORS
330
58C
102
}
330
58C
100
DictionaryVariables
280
     0
  1
2
  0
DICTIONARYVAR
  5
590
102
{ACAD_REACTORS
330
58C
102
}
330
58C
100
DictionaryVariables
280
     0
  1
1
  0
DICTIONARY
  5
5B3
330
3D
100
AcDbDictionary
280
     1
281
     1
  3
ACAD_XREC_ROUNDTRIP
360
5B4
  0
DICTIONARY
  5
5B1
330
3C
100
AcDbDictionary
280
     1
281
     1
  3
ACAD_XREC_ROUNDTRIP
360
5B2
  0
DICTIONARY
  5
5B5
330
3E
100
AcDbDictionary
280
     1
281
     1
  3
ACAD_XREC_ROUNDTRIP
360
5B6
  0
DICTIONARY
  5
599
330
2F
100
AcDbDictionary
280
     1
281
     1
  3
ACAD_XREC_ROUNDTRIP
360
59A
  0
DICTIONARY
  5
59D
330
31
100
AcDbDictionary
280
     1
281
     1
  3
ACAD_XREC_ROUNDTRIP
360
59E
  0
DICTIONARY
  5
59B
330
30
100
AcDbDictionary
280
     1
281
     1
  3
ACAD_XREC_ROUNDTRIP
360
59C
  0
DICTIONARY
  5
59F
330
32
100
AcDbDictionary
280
     1
281
     1
  3
ACAD_XREC_ROUNDTRIP
360
5A0
  0
DICTIONARY
  5
5A7
330
36
100
AcDbDictionary
280
     1
281
     1
  3
ACAD_XREC_ROUNDTRIP
360
5A8
  0
DICTIONARY
  5
5AF
330
3A
100
AcDbDictionary
280
     1
281
     1
  3
ACAD_XREC_ROUNDTRIP
360
5B0
  0
DICTIONARY
  5
5A3
330
34
100
AcDbDictionary
280
     1
281
     1
  3
ACAD_XREC_ROUNDTRIP
360
5A4
  0
DICTIONARY
  5
5A5
330
35
100
AcDbDictionary
280
     1
281
     1
  3
ACAD_XREC_ROUNDTRIP
360
5A6
  0
DICTIONARY
  5
5AD
330
39
100
AcDbDictionary
280
     1
281
     1
  3
ACAD_XREC_ROUNDTRIP
360
5AE
  0
DICTIONARY
  5
591
330
2B
100
AcDbDictionary
280
     1
281
     1
  3
ACAD_XREC_ROUNDTRIP
360
592
  0
DICTIONARY
  5
593
330
2C
100
AcDbDictionary
280
     1
281
     1
  3
ACAD_XREC_ROUNDTRIP
360
594
  0
DICTIONARY
  5
595
330
2D
100
AcDbDictionary
280
     1
281
     1
  3
ACAD_XREC_ROUNDTRIP
360
596
  0
DICTIONARY
  5
597
330
2E
100
AcDbDictionary
280
     1
281
     1
  3
ACAD_XREC_ROUNDTRIP
360
598
  0
DICTIONARY
  5
5AB
330
38
100
AcDbDictionary
280
     1
281
     1
  3
ACAD_XREC_ROUNDTRIP
360
5AC
  0
DICTIONARY
  5
5A1
330
33
100
AcDbDictionary
280
     1
281
     1
  3
ACAD_XREC_ROUNDTRIP
360
5A2
  0
DICTIONARY
  5
5A9
330
37
100
AcDbDictionary
280
     1
281
     1
  3
ACAD_XREC_ROUNDTRIP
360
5AA
  0
XRECORD
  5
5B4
102
{ACAD_REACTORS
330
5B3
102
}
330
5B3
100
AcDbXrecord
280
     1
102
MATERIAL
148
0.0
149
0.0
149
0.0
 93
        0
 94
      127
282
     0
 72
     1
 77
     1
171
     1
175
     1
179
     1
273
     0
  0
XRECORD
  5
5B2
102
{ACAD_REACTORS
330
5B1
102
}
330
5B1
100
AcDbXrecord
280
     1
102
MATERIAL
148
0.0
149
0.0
149
0.0
 93
        0
 94
      127
282
     0
 72
     1
 77
     1
171
     1
175
     1
179
     1
273
     0
  0
XRECORD
  5
5B6
102
{ACAD_REACTORS
330
5B5
102
}
330
5B5
100
AcDbXrecord
280
     1
102
MATERIAL
148
0.0
149
0.0
149
0.0
 93
        0
 94
      127
282
     0
 72
     1
 77
     1
171
     1
175
     1
179
     1
273
     0
  0
XRECORD
  5
59A
102
{ACAD_REACTORS
330
599
102
}
330
599
100
AcDbXrecord
280
     1
102
RTVSPropertyOp0
 70
     1
102
RTVSPropertyOp1
 70
     1
102
RTVSPropertyOp2
 70
     1
102
RTVSPropertyOp3
 70
     1
102
RTVSPropertyOp4
 70
     1
102
RTVSPropertyOp5
 70
     1
102
RTVSPropertyOp6
 70
     1
102
RTVSPropertyOp7
 70
     1
102
RTVSPropertyOp8
 70
     1
102
RTVSPropertyOp9
 70
     1
102
RTVSPropertyOp10
 70
     1
102
RTVSPropertyOp11
 70
     1
102
RTVSPropertyOp12
 70
     1
102
RTVSPropertyOp13
 70
     1
102
RTVSPropertyOp14
 70
     1
102
RTVSPropertyOp15
 70
     1
102
RTVSPropertyOp16
 70
     1
102
RTVSPropertyOp17
 70
     1
102
RTVSPropertyOp18
 70
     1
102
RTVSPropertyOp19
 70
     1
102
RTVSPropertyOp20
 70
     1
102
RTVSPropertyOp21
 70
     1
102
RTVSPropertyOp22
 70
     1
102
RTVSPropertyOp23
 70
     1
102
RTVSPropertyOp24
 70
     1
102
RTVSPropertyOp25
 70
     1
102
RTVSPropertyOp26
 70
     1
102
RTVSPropertyOp27
 70
     1
102
RTVSPropertyOp28
 70
     1
102
RTVSPropertyOp29
 70
     1
102
RTVSPropertyOp30
 70
     1
102
RTVSPropertyOp31
 70
     1
102
RTVSPropertyOp32
 70
     1
  0
XRECORD
  5
59E
102
{ACAD_REACTORS
330
59D
102
}
330
59D
100
AcDbXrecord
280
     1
102
RTVSPropertyOp0
 70
     1
102
RTVSPropertyOp1
 70
     1
102
RTVSPropertyOp2
 70
     1
102
RTVSPropertyOp3
 70
     1
102
RTVSPropertyOp4
 70
     1
102
RTVSPropertyOp5
 70
     1
102
RTVSPropertyOp6
 70
     1
102
RTVSPropertyOp7
 70
     1
102
RTVSPropertyOp8
 70
     1
102
RTVSPropertyOp9
 70
     1
102
RTVSPropertyOp10
 70
     1
102
RTVSPropertyOp11
 70
     1
102
RTVSPropertyOp12
 70
     1
102
RTVSPropertyOp13
 70
     1
102
RTVSPropertyOp14
 70
     1
102
RTVSPropertyOp15
 70
     1
102
RTVSPropertyOp16
 70
     1
102
RTVSPropertyOp17
 70
     1
102
RTVSPropertyOp18
 70
     1
102
RTVSPropertyOp19
 70
     1
102
RTVSPropertyOp20
 70
     1
102
RTVSPropertyOp21
 70
     1
102
RTVSPropertyOp22
 70
     1
102
RTVSPropertyOp23
 70
     1
102
RTVSPropertyOp24
 70
     1
102
RTVSPropertyOp25
 70
     1
102
RTVSPropertyOp26
 70
     1
102
RTVSPropertyOp27
 70
     1
102
RTVSPropertyOp28
 70
     1
102
RTVSPropertyOp29
 70
     1
102
RTVSPropertyOp30
 70
     1
102
RTVSPropertyOp31
 70
     1
102
RTVSPropertyOp32
 70
     1
  0
XRECORD
  5
59C
102
{ACAD_REACTORS
330
59B
102
}
330
59B
100
AcDbXrecord
280
     1
102
RTVSPropertyOp0
 70
     1
102
RTVSPropertyOp1
 70
     1
102
RTVSPropertyOp2
 70
     1
102
RTVSPropertyOp3
 70
     1
102
RTVSPropertyOp4
 70
     1
102
RTVSPropertyOp5
 70
     1
102
RTVSPropertyOp6
 70
     1
102
RTVSPropertyOp7
 70
     1
102
RTVSPropertyOp8
 70
     1
102
RTVSPropertyOp9
 70
     1
102
RTVSPropertyOp10
 70
     1
102
RTVSPropertyOp11
 70
     1
102
RTVSPropertyOp12
 70
     1
102
RTVSPropertyOp13
 70
     1
102
RTVSPropertyOp14
 70
     1
102
RTVSPropertyOp15
 70
     1
102
RTVSPropertyOp16
 70
     1
102
RTVSPropertyOp17
 70
     1
102
RTVSPropertyOp18
 70
     1
102
RTVSPropertyOp19
 70
     1
102
RTVSPropertyOp20
 70
     1
102
RTVSPropertyOp21
 70
     1
102
RTVSPropertyOp22
 70
     1
102
RTVSPropertyOp23
 70
     1
102
RTVSPropertyOp24
 70
     1
102
RTVSPropertyOp25
 70
     1
102
RTVSPropertyOp26
 70
     1
102
RTVSPropertyOp27
 70
     1
102
RTVSPropertyOp28
 70
     1
102
RTVSPropertyOp29
 70
     1
102
RTVSPropertyOp30
 70
     1
102
RTVSPropertyOp31
 70
     1
102
RTVSPropertyOp32
 70
     1
  0
XRECORD
  5
5A0
102
{ACAD_REACTORS
330
59F
102
}
330
59F
100
AcDbXrecord
280
     1
102
RTVSPropertyOp0
 70
     1
102
RTVSPropertyOp1
 70
     1
102
RTVSPropertyOp2
 70
     1
102
RTVSPropertyOp3
 70
     1
102
RTVSPropertyOp4
 70
     1
102
RTVSPropertyOp5
 70
     1
102
RTVSPropertyOp6
 70
     1
102
RTVSPropertyOp7
 70
     1
102
RTVSPropertyOp8
 70
     1
102
RTVSPropertyOp9
 70
     1
102
RTVSPropertyOp10
 70
     1
102
RTVSPropertyOp11
 70
     1
102
RTVSPropertyOp12
 70
     1
102
RTVSPropertyOp13
 70
     1
102
RTVSPropertyOp14
 70
     1
102
RTVSPropertyOp15
 70
     1
102
RTVSPropertyOp16
 70
     1
102
RTVSPropertyOp17
 70
     1
102
RTVSPropertyOp18
 70
     1
102
RTVSPropertyOp19
 70
     1
102
RTVSPropertyOp20
 70
     1
102
RTVSPropertyOp21
 70
     1
102
RTVSPropertyOp22
 70
     1
102
RTVSPropertyOp23
 70
     1
102
RTVSPropertyOp24
 70
     1
102
RTVSPropertyOp25
 70
     1
102
RTVSPropertyOp26
 70
     1
102
RTVSPropertyOp27
 70
     1
102
RTVSPropertyOp28
 70
     1
102
RTVSPropertyOp29
 70
     1
102
RTVSPropertyOp30
 70
     1
102
RTVSPropertyOp31
 70
     1
102
RTVSPropertyOp32
 70
     1
  0
XRECORD
  5
5A8
102
{ACAD_REACTORS
330
5A7
102
}
330
5A7
100
AcDbXrecord
280
     1
102
RTVSPropertyOp0
 70
     1
102
RTVSPropertyOp1
 70
     1
102
RTVSPropertyOp2
 70
     1
102
RTVSPropertyOp3
 70
     1
102
RTVSPropertyOp4
 70
     1
102
RTVSPropertyOp5
 70
     1
102
RTVSPropertyOp6
 70
     1
102
RTVSPropertyOp7
 70
     1
102
RTVSPropertyOp8
 70
     1
102
RTVSPropertyOp9
 70
     1
102
RTVSPropertyOp10
 70
     1
102
RTVSPropertyOp11
 70
     1
102
RTVSPropertyOp12
 70
     1
102
RTVSPropertyOp13
 70
     1
102
RTVSPropertyOp14
 70
     1
102
RTVSPropertyOp15
 70
     1
102
RTVSPropertyOp16
 70
     1
102
RTVSPropertyOp17
 70
     1
102
RTVSPropertyOp18
 70
     1
102
RTVSPropertyOp19
 70
     1
102
RTVSPropertyOp20
 70
     1
102
RTVSPropertyOp21
 70
     1
102
RTVSPropertyOp22
 70
     1
102
RTVSPropertyOp23
 70
     1
102
RTVSPropertyOp24
 70
     1
102
RTVSPropertyOp25
 70
     1
102
RTVSPropertyOp26
 70
     1
102
RTVSPropertyOp27
 70
     1
102
RTVSPropertyOp28
 70
     1
102
RTVSPropertyOp29
 70
     1
102
RTVSPropertyOp30
 70
     1
102
RTVSPropertyOp31
 70
     1
102
RTVSPropertyOp32
 70
     1
  0
XRECORD
  5
5B0
102
{ACAD_REACTORS
330
5AF
102
}
330
5AF
100
AcDbXrecord
280
     1
102
RTVSPropertyOp0
 70
     1
102
RTVSPropertyOp1
 70
     1
102
RTVSPropertyOp2
 70
     1
102
RTVSPropertyOp3
 70
     1
102
RTVSPropertyOp4
 70
     1
102
RTVSPropertyOp5
 70
     1
102
RTVSPropertyOp6
 70
     1
102
RTVSPropertyOp7
 70
     1
102
RTVSPropertyOp8
 70
     1
102
RTVSPropertyOp9
 70
     1
102
RTVSPropertyOp10
 70
     1
102
RTVSPropertyOp11
 70
     1
102
RTVSPropertyOp12
 70
     1
102
RTVSPropertyOp13
 70
     1
102
RTVSPropertyOp14
 70
     1
102
RTVSPropertyOp15
 70
     1
102
RTVSPropertyOp16
 70
     1
102
RTVSPropertyOp17
 70
     1
102
RTVSPropertyOp18
 70
     1
102
RTVSPropertyOp19
 70
     1
102
RTVSPropertyOp20
 70
     1
102
RTVSPropertyOp21
 70
     1
102
RTVSPropertyOp22
 70
     1
102
RTVSPropertyOp23
 70
     1
102
RTVSPropertyOp24
 70
     1
102
RTVSPropertyOp25
 70
     1
102
RTVSPropertyOp26
 70
     1
102
RTVSPropertyOp27
 70
     1
102
RTVSPropertyOp28
 70
     1
102
RTVSPropertyOp29
 70
     1
102
RTVSPropertyOp30
 70
     1
102
RTVSPropertyOp31
 70
     1
102
RTVSPropertyOp32
 70
     1
  0
XRECORD
  5
5A4
102
{ACAD_REACTORS
330
5A3
102
}
330
5A3
100
AcDbXrecord
280
     1
102
RTVSPropertyOp0
 70
     1
102
RTVSPropertyOp1
 70
     1
102
RTVSPropertyOp2
 70
     1
102
RTVSPropertyOp3
 70
     1
102
RTVSPropertyOp4
 70
     1
102
RTVSPropertyOp5
 70
     1
102
RTVSPropertyOp6
 70
     1
102
RTVSPropertyOp7
 70
     1
102
RTVSPropertyOp8
 70
     1
102
RTVSPropertyOp9
 70
     1
102
RTVSPropertyOp10
 70
     1
102
RTVSPropertyOp11
 70
     1
102
RTVSPropertyOp12
 70
     1
102
RTVSPropertyOp13
 70
     1
102
RTVSPropertyOp14
 70
     1
102
RTVSPropertyOp15
 70
     1
102
RTVSPropertyOp16
 70
     1
102
RTVSPropertyOp17
 70
     1
102
RTVSPropertyOp18
 70
     1
102
RTVSPropertyOp19
 70
     1
102
RTVSPropertyOp20
 70
     1
102
RTVSPropertyOp21
 70
     1
102
RTVSPropertyOp22
 70
     1
102
RTVSPropertyOp23
 70
     1
102
RTVSPropertyOp24
 70
     1
102
RTVSPropertyOp25
 70
     1
102
RTVSPropertyOp26
 70
     1
102
RTVSPropertyOp27
 70
     1
102
RTVSPropertyOp28
 70
     1
102
RTVSPropertyOp29
 70
     1
102
RTVSPropertyOp30
 70
     1
102
RTVSPropertyOp31
 70
     1
102
RTVSPropertyOp32
 70
     1
  0
XRECORD
  5
5A6
102
{ACAD_REACTORS
330
5A5
102
}
330
5A5
100
AcDbXrecord
280
     1
102
RTVSPropertyOp0
 70
     1
102
RTVSPropertyOp1
 70
     1
102
RTVSPropertyOp2
 70
     1
102
RTVSPropertyOp3
 70
     1
102
RTVSPropertyOp4
 70
     1
102
RTVSPropertyOp5
 70
     1
102
RTVSPropertyOp6
 70
     1
102
RTVSPropertyOp7
 70
     1
102
RTVSPropertyOp8
 70
     1
102
RTVSPropertyOp9
 70
     1
102
RTVSPropertyOp10
 70
     1
102
RTVSPropertyOp11
 70
     1
102
RTVSPropertyOp12
 70
     1
102
RTVSPropertyOp13
 70
     1
102
RTVSPropertyOp14
 70
     1
102
RTVSPropertyOp15
 70
     1
102
RTVSPropertyOp16
 70
     1
102
RTVSPropertyOp17
 70
     1
102
RTVSPropertyOp18
 70
     1
102
RTVSPropertyOp19
 70
     1
102
RTVSPropertyOp20
 70
     1
102
RTVSPropertyOp21
 70
     1
102
RTVSPropertyOp22
 70
     1
102
RTVSPropertyOp23
 70
     1
102
RTVSPropertyOp24
 70
     1
102
RTVSPropertyOp25
 70
     1
102
RTVSPropertyOp26
 70
     1
102
RTVSPropertyOp27
 70
     1
102
RTVSPropertyOp28
 70
     1
102
RTVSPropertyOp29
 70
     1
102
RTVSPropertyOp30
 70
     1
102
RTVSPropertyOp31
 70
     1
102
RTVSPropertyOp32
 70
     1
  0
XRECORD
  5
5AE
102
{ACAD_REACTORS
330
5AD
102
}
330
5AD
100
AcDbXrecord
280
     1
102
RTVSPropertyOp0
 70
     1
102
RTVSPropertyOp1
 70
     1
102
RTVSPropertyOp2
 70
     1
102
RTVSPropertyOp3
 70
     1
102
RTVSPropertyOp4
 70
     1
102
RTVSPropertyOp5
 70
     1
102
RTVSPropertyOp6
 70
     1
102
RTVSPropertyOp7
 70
     1
102
RTVSPropertyOp8
 70
     1
102
RTVSPropertyOp9
 70
     1
102
RTVSPropertyOp10
 70
     1
102
RTVSPropertyOp11
 70
     1
102
RTVSPropertyOp12
 70
     1
102
RTVSPropertyOp13
 70
     1
102
RTVSPropertyOp14
 70
     1
102
RTVSPropertyOp15
 70
     1
102
RTVSPropertyOp16
 70
     1
102
RTVSPropertyOp17
 70
     1
102
RTVSPropertyOp18
 70
     1
102
RTVSPropertyOp19
 70
     1
102
RTVSPropertyOp20
 70
     1
102
RTVSPropertyOp21
 70
     1
102
RTVSPropertyOp22
 70
     1
102
RTVSPropertyOp23
 70
     1
102
RTVSPropertyOp24
 70
     1
102
RTVSPropertyOp25
 70
     1
102
RTVSPropertyOp26
 70
     1
102
RTVSPropertyOp27
 70
     1
102
RTVSPropertyOp28
 70
     1
102
RTVSPropertyOp29
 70
     1
102
RTVSPropertyOp30
 70
     1
102
RTVSPropertyOp31
 70
     1
102
RTVSPropertyOp32
 70
     1
  0
XRECORD
  5
592
102
{ACAD_REACTORS
330
591
102
}
330
591
100
AcDbXrecord
280
     1
102
RTVSPropertyOp0
 70
     1
102
RTVSPropertyOp1
 70
     1
102
RTVSPropertyOp2
 70
     1
102
RTVSPropertyOp3
 70
     1
102
RTVSPropertyOp4
 70
     1
102
RTVSPropertyOp5
 70
     1
102
RTVSPropertyOp6
 70
     1
102
RTVSPropertyOp7
 70
     1
102
RTVSPropertyOp8
 70
     1
102
RTVSPropertyOp9
 70
     1
102
RTVSPropertyOp10
 70
     1
102
RTVSPropertyOp11
 70
     1
102
RTVSPropertyOp12
 70
     1
102
RTVSPropertyOp13
 70
     1
102
RTVSPropertyOp14
 70
     1
102
RTVSPropertyOp15
 70
     1
102
RTVSPropertyOp16
 70
     1
102
RTVSPropertyOp17
 70
     1
102
RTVSPropertyOp18
 70
     1
102
RTVSPropertyOp19
 70
     1
102
RTVSPropertyOp20
 70
     1
102
RTVSPropertyOp21
 70
     1
102
RTVSPropertyOp22
 70
     1
102
RTVSPropertyOp23
 70
     1
102
RTVSPropertyOp24
 70
     1
102
RTVSPropertyOp25
 70
     1
102
RTVSPropertyOp26
 70
     1
102
RTVSPropertyOp27
 70
     1
102
RTVSPropertyOp28
 70
     1
102
RTVSPropertyOp29
 70
     1
102
RTVSPropertyOp30
 70
     1
102
RTVSPropertyOp31
 70
     1
102
RTVSPropertyOp32
 70
     1
  0
XRECORD
  5
594
102
{ACAD_REACTORS
330
593
102
}
330
593
100
AcDbXrecord
280
     1
102
RTVSPropertyOp0
 70
     1
102
RTVSPropertyOp1
 70
     1
102
RTVSPropertyOp2
 70
     1
102
RTVSPropertyOp3
 70
     1
102
RTVSPropertyOp4
 70
     1
102
RTVSPropertyOp5
 70
     1
102
RTVSPropertyOp6
 70
     1
102
RTVSPropertyOp7
 70
     1
102
RTVSPropertyOp8
 70
     1
102
RTVSPropertyOp9
 70
     1
102
RTVSPropertyOp10
 70
     1
102
RTVSPropertyOp11
 70
     1
102
RTVSPropertyOp12
 70
     1
102
RTVSPropertyOp13
 70
     1
102
RTVSPropertyOp14
 70
     1
102
RTVSPropertyOp15
 70
     1
102
RTVSPropertyOp16
 70
     1
102
RTVSPropertyOp17
 70
     1
102
RTVSPropertyOp18
 70
     1
102
RTVSPropertyOp19
 70
     1
102
RTVSPropertyOp20
 70
     1
102
RTVSPropertyOp21
 70
     1
102
RTVSPropertyOp22
 70
     1
102
RTVSPropertyOp23
 70
     1
102
RTVSPropertyOp24
 70
     1
102
RTVSPropertyOp25
 70
     1
102
RTVSPropertyOp26
 70
     1
102
RTVSPropertyOp27
 70
     1
102
RTVSPropertyOp28
 70
     1
102
RTVSPropertyOp29
 70
     1
102
RTVSPropertyOp30
 70
     1
102
RTVSPropertyOp31
 70
     1
102
RTVSPropertyOp32
 70
     1
  0
XRECORD
  5
596
102
{ACAD_REACTORS
330
595
102
}
330
595
100
AcDbXrecord
280
     1
102
RTVSPropertyOp0
 70
     1
102
RTVSPropertyOp1
 70
     1
102
RTVSPropertyOp2
 70
     1
102
RTVSPropertyOp3
 70
     1
102
RTVSPropertyOp4
 70
     1
102
RTVSPropertyOp5
 70
     1
102
RTVSPropertyOp6
 70
     1
102
RTVSPropertyOp7
 70
     1
102
RTVSPropertyOp8
 70
     1
102
RTVSPropertyOp9
 70
     1
102
RTVSPropertyOp10
 70
     1
102
RTVSPropertyOp11
 70
     1
102
RTVSPropertyOp12
 70
     1
102
RTVSPropertyOp13
 70
     1
102
RTVSPropertyOp14
 70
     1
102
RTVSPropertyOp15
 70
     1
102
RTVSPropertyOp16
 70
     1
102
RTVSPropertyOp17
 70
     1
102
RTVSPropertyOp18
 70
     1
102
RTVSPropertyOp19
 70
     1
102
RTVSPropertyOp20
 70
     1
102
RTVSPropertyOp21
 70
     1
102
RTVSPropertyOp22
 70
     1
102
RTVSPropertyOp23
 70
     1
102
RTVSPropertyOp24
 70
     1
102
RTVSPropertyOp25
 70
     1
102
RTVSPropertyOp26
 70
     1
102
RTVSPropertyOp27
 70
     1
102
RTVSPropertyOp28
 70
     1
102
RTVSPropertyOp29
 70
     1
102
RTVSPropertyOp30
 70
     1
102
RTVSPropertyOp31
 70
     1
102
RTVSPropertyOp32
 70
     1
  0
XRECORD
  5
598
102
{ACAD_REACTORS
330
597
102
}
330
597
100
AcDbXrecord
280
     1
102
RTVSPropertyOp0
 70
     1
102
RTVSPropertyOp1
 70
     1
102
RTVSPropertyOp2
 70
     1
102
RTVSPropertyOp3
 70
     1
102
RTVSPropertyOp4
 70
     1
102
RTVSPropertyOp5
 70
     1
102
RTVSPropertyOp6
 70
     1
102
RTVSPropertyOp7
 70
     1
102
RTVSPropertyOp8
 70
     1
102
RTVSPropertyOp9
 70
     1
102
RTVSPropertyOp10
 70
     1
102
RTVSPropertyOp11
 70
     1
102
RTVSPropertyOp12
 70
     1
102
RTVSPropertyOp13
 70
     1
102
RTVSPropertyOp14
 70
     1
102
RTVSPropertyOp15
 70
     1
102
RTVSPropertyOp16
 70
     1
102
RTVSPropertyOp17
 70
     1
102
RTVSPropertyOp18
 70
     1
102
RTVSPropertyOp19
 70
     1
102
RTVSPropertyOp20
 70
     1
102
RTVSPropertyOp21
 70
     1
102
RTVSPropertyOp22
 70
     1
102
RTVSPropertyOp23
 70
     1
102
RTVSPropertyOp24
 70
     1
102
RTVSPropertyOp25
 70
     1
102
RTVSPropertyOp26
 70
     1
102
RTVSPropertyOp27
 70
     1
102
RTVSPropertyOp28
 70
     1
102
RTVSPropertyOp29
 70
     1
102
RTVSPropertyOp30
 70
     1
102
RTVSPropertyOp31
 70
     1
102
RTVSPropertyOp32
 70
     1
  0
XRECORD
  5
5AC
102
{ACAD_REACTORS
330
5AB
102
}
330
5AB
100
AcDbXrecord
280
     1
102
RTVSPropertyOp0
 70
     1
102
RTVSPropertyOp1
 70
     1
102
RTVSPropertyOp2
 70
     1
102
RTVSPropertyOp3
 70
     1
102
RTVSPropertyOp4
 70
     1
102
RTVSPropertyOp5
 70
     1
102
RTVSPropertyOp6
 70
     1
102
RTVSPropertyOp7
 70
     1
102
RTVSPropertyOp8
 70
     1
102
RTVSPropertyOp9
 70
     1
102
RTVSPropertyOp10
 70
     1
102
RTVSPropertyOp11
 70
     1
102
RTVSPropertyOp12
 70
     1
102
RTVSPropertyOp13
 70
     1
102
RTVSPropertyOp14
 70
     1
102
RTVSPropertyOp15
 70
     1
102
RTVSPropertyOp16
 70
     1
102
RTVSPropertyOp17
 70
     1
102
RTVSPropertyOp18
 70
     1
102
RTVSPropertyOp19
 70
     1
102
RTVSPropertyOp20
 70
     1
102
RTVSPropertyOp21
 70
     1
102
RTVSPropertyOp22
 70
     1
102
RTVSPropertyOp23
 70
     1
102
RTVSPropertyOp24
 70
     1
102
RTVSPropertyOp25
 70
     1
102
RTVSPropertyOp26
 70
     1
102
RTVSPropertyOp27
 70
     1
102
RTVSPropertyOp28
 70
     1
102
RTVSPropertyOp29
 70
     1
102
RTVSPropertyOp30
 70
     1
102
RTVSPropertyOp31
 70
     1
102
RTVSPropertyOp32
 70
     1
  0
XRECORD
  5
5A2
102
{ACAD_REACTORS
330
5A1
102
}
330
5A1
100
AcDbXrecord
280
     1
102
RTVSPropertyOp0
 70
     1
102
RTVSPropertyOp1
 70
     1
102
RTVSPropertyOp2
 70
     1
102
RTVSPropertyOp3
 70
     1
102
RTVSPropertyOp4
 70
     1
102
RTVSPropertyOp5
 70
     1
102
RTVSPropertyOp6
 70
     1
102
RTVSPropertyOp7
 70
     1
102
RTVSPropertyOp8
 70
     1
102
RTVSPropertyOp9
 70
     1
102
RTVSPropertyOp10
 70
     1
102
RTVSPropertyOp11
 70
     1
102
RTVSPropertyOp12
 70
     1
102
RTVSPropertyOp13
 70
     1
102
RTVSPropertyOp14
 70
     1
102
RTVSPropertyOp15
 70
     1
102
RTVSPropertyOp16
 70
     1
102
RTVSPropertyOp17
 70
     1
102
RTVSPropertyOp18
 70
     1
102
RTVSPropertyOp19
 70
     1
102
RTVSPropertyOp20
 70
     1
102
RTVSPropertyOp21
 70
     1
102
RTVSPropertyOp22
 70
     1
102
RTVSPropertyOp23
 70
     1
102
RTVSPropertyOp24
 70
     1
102
RTVSPropertyOp25
 70
     1
102
RTVSPropertyOp26
 70
     1
102
RTVSPropertyOp27
 70
     1
102
RTVSPropertyOp28
 70
     1
102
RTVSPropertyOp29
 70
     1
102
RTVSPropertyOp30
 70
     1
102
RTVSPropertyOp31
 70
     1
102
RTVSPropertyOp32
 70
     1
  0
XRECORD
  5
5AA
102
{ACAD_REACTORS
330
5A9
102
}
330
5A9
100
AcDbXrecord
280
     1
102
RTVSPropertyOp0
 70
     1
102
RTVSPropertyOp1
 70
     1
102
RTVSPropertyOp2
 70
     1
102
RTVSPropertyOp3
 70
     1
102
RTVSPropertyOp4
 70
     1
102
RTVSPropertyOp5
 70
     1
102
RTVSPropertyOp6
 70
     1
102
RTVSPropertyOp7
 70
     1
102
RTVSPropertyOp8
 70
     1
102
RTVSPropertyOp9
 70
     1
102
RTVSPropertyOp10
 70
     1
102
RTVSPropertyOp11
 70
     1
102
RTVSPropertyOp12
 70
     1
102
RTVSPropertyOp13
 70
     1
102
RTVSPropertyOp14
 70
     1
102
RTVSPropertyOp15
 70
     1
102
RTVSPropertyOp16
 70
     1
102
RTVSPropertyOp17
 70
     1
102
RTVSPropertyOp18
 70
     1
102
RTVSPropertyOp19
 70
     1
102
RTVSPropertyOp20
 70
     1
102
RTVSPropertyOp21
 70
     1
102
RTVSPropertyOp22
 70
     1
102
RTVSPropertyOp23
 70
     1
102
RTVSPropertyOp24
 70
     1
102
RTVSPropertyOp25
 70
     1
102
RTVSPropertyOp26
 70
     1
102
RTVSPropertyOp27
 70
     1
102
RTVSPropertyOp28
 70
     1
102
RTVSPropertyOp29
 70
     1
102
RTVSPropertyOp30
 70
     1
102
RTVSPropertyOp31
 70
     1
102
RTVSPropertyOp32
 70
     1
  0
ENDSEC
  0
EOF
